Сегодня идет свободное скачивание без начисления Download

Доктор на море / Doctor at Sea (1955) DVDRip

Ответить на тему
 
Автор
Сообщение

Omen ®

Стаж: 4 года 1 месяц

Сообщений: 194394

Торрент-статистика

Пост 15-Янв-2013 00:20

[Цитировать]

-Доктор на море / Doctor at Sea (1955) DVDRip- Русское название: Доктор на море
Оригинальное название: Doctor at Sea
Год выпуска: 1955
Жанр: Комедия
Описание фильма:
Саймон Спэрроу устраивается работать судовым врачом. Он предполагает, что его ждет спокойное плавание. Однако на борт корабля поднимаются дочь судовладельца и певичка-француженка. Говорят, что женщина на корабле — к несчастью, а тут их сразу две…
Режиссер: Ральф Томас
Актеры: Дирк Богард, Бренда Де Банзи, Брижит Бардо, Джеймс Робертсон Джастис, Морис Денэм, Майкл Медуин, Хьюберт Грегг, Джеймс Кенни, Рэймонд Хантли, Джефри Кин, Джордж Кулурис, Ноэл Пёрселл, Джилл Адамс, Джоан Симс, Сирил Чемберлен, Токе Таунли, Томас Хиткот, Абе Баркер, Фредерик Пайпер, Майкл Шепли, Юджин Декерс, Мэри Лаура Вуд, Ekali Sokou, Джоан Хиксон, Феликс Фелтон, Мартин Бенсон, Julia Bratsi, Пол Карпентер, Фред Гриффитс, Харольд Каскет, Джил Мелфорд, Стюарт Сондерс, Delene Scott, Кэрол Уайт
Продолжительность: 01:29:53
Перевод: Двуголосый закадровый

Дата мировой премьеры: 12 июля 1955
Видеокодек: DivX 4/5/6
Битрейт видео: ~1779 Кбит/сек
Размер кадра: 688x384
Качество видео: DVDRip
Аудиокодек: AC3
Битрейт аудио: 192 Кбит/сек. 48,0 КГц
Сэмпл: Ссылка
Скриншоты:
       
       

Трейлер:

Mediainfo

Общее
Полное имя : \Moi Razdachi\Doktor.na.more.1955.DVDRip.avi
Формат : AVI
Формат/Информация : Audio Video Interleave
Размер файла : 1,37 Гбайт
Продолжительность : 1 ч. 29 м.
Общий поток : 2177 Кбит/сек
Программа кодирования : VirtualDubMod 1.5.10.2 (build 2540/release)
Библиотека кодирования : VirtualDubMod build 2540/release
Видео
Идентификатор : 0
Формат : MPEG-4 Visual
Параметр BVOP формата : 1
Параметр QPel формата : Нет
Параметр GMC формата : Без точки перехода
Параметр матрицы формата : Default (H.263)
Режим смешивания : Сжатый битовый поток
Идентификатор кодека : DX50
Идентификатор кодека/Подсказка : DivX 5
Продолжительность : 1 ч. 29 м.
Битрейт : 1779 Кбит/сек
Ширина : 688 пикселей
Высота : 384 пикселя
Соотношение сторон : 16:9
Частота кадров : 25,000 кадров/сек
Цветовое пространство : YUV
Субдискретизация насыщенности : 4:2:0
Битовая глубина : 8 бит
Тип развёртки : Прогрессивная
Метод сжатия : С потерями
Бит/(Пиксели*Кадры) : 0.269
Размер потока : 1,12 Гбайт (82%)
Библиотека кодирования : DivX 5.2.1 (WaffleDay) (UTC 2004-09-08)
Аудио #1
Идентификатор : 1
Формат : AC-3
Формат/Информация : Audio Coding 3
Расширение режима : CM (complete main)
Параметр Endianness формата : Big
Идентификатор кодека : 2000
Продолжительность : 1 ч. 29 м.
Вид битрейта : Постоянный
Битрейт : 192 Кбит/сек
Каналы : 2 канала
Расположение каналов : Front: L R
Частота : 48,0 КГц
Битовая глубина : 16 бит
Метод сжатия : С потерями
Размер потока : 123 Мбайт (9%)
Выравнивание : Разделение по промежуткам
Продолжительность промежутка : 40 мс. (1,00 видеокадр)
Время предзагрузки промежутка : 500 мс.
Аудио #2
Идентификатор : 2
Формат : AC-3
Формат/Информация : Audio Coding 3
Расширение режима : CM (complete main)
Параметр Endianness формата : Big
Идентификатор кодека : 2000
Продолжительность : 1 ч. 29 м.
Вид битрейта : Постоянный
Битрейт : 192 Кбит/сек
Каналы : 2 канала
Расположение каналов : Front: L R
Частота : 48,0 КГц
Битовая глубина : 16 бит
Метод сжатия : С потерями
Размер потока : 123 Мбайт (9%)
Выравнивание : Разделение по промежуткам
Продолжительность промежутка : 40 мс. (1,00 видеокадр)
Время предзагрузки промежутка : 500 мс.
Время раздачи: 24/7 до трёх скачавших
Вне форума [Профиль] [ЛС]
Показать сообщения:    
Ответить на тему

Текущее время: Сегодня 16:40

Часовой пояс: GMT + 3



Вы не можете начинать темы
Вы не можете отвечать на сообщения
Вы не можете редактировать свои сообщения
Вы не можете удалять свои сообщения
Вы не можете голосовать в опросах
Вы не можете прикреплять файлы к сообщениям
Вы не можете скачивать файлы