Сегодня идет свободное скачивание без начисления Download

Женщина есть женщина / Une femme est une femme (1961) [H.264] DVDRip

Ответить на тему
 
Автор
Сообщение

Omen ®

Стаж: 4 года 1 месяц

Сообщений: 194394

Торрент-статистика

Пост 15-Янв-2013 03:28

[Цитировать]

-Женщина есть женщина / Une femme est une femme (1961) [H.264] DVDRip- Русское название: Женщина есть женщина
Оригинальное название: Une femme est une femme
Год выпуска: 1961
Жанр: Драма, Мелодрама, Комедия
Описание фильма:
Анжела во что бы то ни стало хочет ребенка, но ее муж Эмиль отказывается. В конце концов она делает вид, что попросила их друга Альфреда оказать ей честь, которая принимается. Эмиль, пойманный в ловушку, наконец удовлетворяет желание своей жены.
Режиссер: Жан-Люк Годар
Актеры: Жан-Клод Бриали, Анна Карина, Жан-Поль Бельмондо, Анри Атталь, Karyn Balm, Доротея Бланк, Мари Дюбуа, Эрнест Мензе, Жанна Моро, Николь Пакуин
Продолжительность: 01:20:18
Перевод: Двуголосый закадровый

Дата мировой премьеры: 06.09.61
Видеокодек: MPEG-4 AVC/H.264
Битрейт видео: ~2131 Кбит/сек
Размер кадра: 1024x576
Качество видео: DVDRip
Аудиокодек: AC3 2.0
Битрейт аудио: 192 Кбит/сек
Аудио1: (AC3, 2 ch) 192 Кбит/сек |Русский, двуголосый закадровый|
Аудио2: (AC3, 2 ch) 192 Кбит/сек |Французский, оригинальный|

MediaInfo:

Общее
Уникальный идентификатор : 174976224111715568008027710374226311971 (0x83A331E8B800BBFAA1C10D24B57A3B23)
Полное имя : H:\!V\!Подгот\Женщина есть женщина.1961.DVDRip\Женщина есть женщина.mkv
Формат : Matroska
Версия формата : Version 4 / Version 2
Размер файла : 1,44 Гбайт
Продолжительность : 1 ч. 20 м.
Общий поток : 2566 Кбит/сек
Дата кодирования : UTC 2010-02-22 21:41:31
Программа кодирования : mkvmerge v5.9.0 ('On The Loose') built on Dec 9 2012 15:37:01
Библиотека кодирования : libebml v1.3.0 + libmatroska v1.4.0
Видео
Идентификатор : 1
Формат : AVC
Формат/Информация : Advanced Video Codec
Профиль формата : [url=mailto:[email protected]][email protected][/url]
Параметр CABAC формата : Нет
Параметр ReFrames формата : 2 кадра
Параметр GOP формата : M=1, N=12
Режим смешивания : Header stripping
Идентификатор кодека : V_MPEG4/ISO/AVC
Продолжительность : 1 ч. 20 м.
Битрейт : 2131 Кбит/сек
Ширина : 1024 пикселя
Высота : 576 пикселей
Соотношение сторон : 16:9
Режим частоты кадров : Постоянный
Частота кадров : 25,000 кадров/сек
Стандарт вещания : PAL
Цветовое пространство : YUV
Субдискретизация насыщенности : 4:2:0
Битовая глубина : 8 бит
Тип развёртки : Прогрессивная
Бит/(Пиксели*Кадры) : 0.145
Размер потока : 1,20 Гбайт (83%)
Язык : Russian
Default : Да
Forced : Нет
Основные цвета : BT.601 PAL
Характеристики трансфера : BT.470 System B, BT.470 System G
Коэффициенты матрицы : BT.601
Аудио #1
Идентификатор : 2
Формат : AC-3
Формат/Информация : Audio Coding 3
Расширение режима : CM (complete main)
Параметр Endianness формата : Big
Режим смешивания : Header stripping
Идентификатор кодека : A_AC3
Продолжительность : 1 ч. 20 м.
Вид битрейта : Постоянный
Битрейт : 192 Кбит/сек
Каналы : 2 канала
Расположение каналов : Front: L R
Частота : 48,0 КГц
Битовая глубина : 16 бит
Метод сжатия : С потерями
Задержка видео : 24 мс.
Размер потока : 110 Мбайт (7%)
Язык : Russian
Default : Да
Forced : Нет
Аудио #2
Идентификатор : 3
Формат : AC-3
Формат/Информация : Audio Coding 3
Расширение режима : CM (complete main)
Параметр Endianness формата : Big
Режим смешивания : Header stripping
Идентификатор кодека : A_AC3
Продолжительность : 1 ч. 20 м.
Вид битрейта : Постоянный
Битрейт : 192 Кбит/сек
Каналы : 2 канала
Расположение каналов : Front: L R
Частота : 48,0 КГц
Битовая глубина : 16 бит
Метод сжатия : С потерями
Задержка видео : 24 мс.
Размер потока : 110 Мбайт (7%)
Язык : French
Default : Нет
Forced : Нет
Скриншоты:
         
         
Вне форума [Профиль] [ЛС]
Похожие темы
Форум Тема Автор Торрент Отв. Посл. сообщение
./templates/default/images/folder_dl.gif ЖЗЛ. Биографии. Мемуары. Историография. В.М.Скляренко и др. | 100 знаменитых женщин [2008] [FB2] sashau
1 | 0

0 | 542

5

2013-04-06 17:36
sashau Последнее
./templates/default/images/folder_dl.gif Техническая и научно-популярная литература Игорь Резько | Самая нужная книга для настоящих женщин (2013) [PDF, FB2, RTF] UndegraundMen
1 | 0

0 | 873

4

2013-10-30 23:11
UndegraundMen Последнее
./templates/default/images/folder_dl.gif T Фильмы 2001-2010 Город грехов 2: Женщина, ради которой стоит убивать / Sin City: A Dame to Kill For (Фрэнк Миллер, Роберт Родригес) [2014 г., фантастика, боевик, WEBRip-AVC] DUB |чистый звук Theseus
1 | 0

0 | 1930

85

2014-09-21 14:14
Theseus Последнее
./templates/default/images/folder_dl.gif Видеотренинги Алекс Мэй | Идеальный вечер для женщин (2014) CamRip [сексология, соблазнение] Omen
2 | 0

0 | 113

80

2015-06-05 00:03
Omen Последнее
./templates/default/images/folder_dl.gif Разное Селин Йегер | Большая книга 15-минутных тренировок для женщин (2013) [PDF] moralis
1 | 0

0 | 263

5

2016-03-17 12:38
moralis Последнее
./templates/default/images/folder_dl.gif Современная проза, классика, поэзия Харуки Мураками | Мужчины без женщин [сборник] (2016) [FB2] [email protected]
2 | 0

0 | 793

2

2016-11-25 19:12
[email protected] Последнее
Показать сообщения:    
Ответить на тему

Текущее время: Сегодня 16:42

Часовой пояс: GMT + 3



Вы не можете начинать темы
Вы не можете отвечать на сообщения
Вы не можете редактировать свои сообщения
Вы не можете удалять свои сообщения
Вы не можете голосовать в опросах
Вы не можете прикреплять файлы к сообщениям
Вы не можете скачивать файлы