Сегодня идет свободное скачивание без начисления Download

Икс икс эль / XXL (1997) [H.264] DVDRip

Ответить на тему
 
Автор
Сообщение

Omen ®

Стаж: 4 года 1 месяц

Сообщений: 194394

Торрент-статистика

Пост 15-Янв-2013 03:28

[Цитировать]

-Икс икс эль / XXL (1997) [H.264] DVDRip- Русское название: Икс икс эль
Оригинальное название: XXL
Год выпуска: 1997
Жанр: Комедия, Мелодрама
Производство: Франция
Описание фильма:
Смерть одного из членов семьи зачастую кардинально меняет жизнь огромного количества людей. Долгие годы не общавшиеся между собой родственники съезжаются на поминки, не предполагая, что этот момент может стать для них переломным. Особенно во Франции, где так горяча кровь неверных жен, так непредсказуемы старики. А если в воздухе пахнет крупным наследством, произойти может все что угодно.
Режиссер: Ариэль Зейтун
Актеры: Жерар Депардье, Мишель Бужена, Джина Лоллобриджида, Эльза Зильберштайн, Гад Эльмалех, Катрин Жакоб, Морис Шевит, Феликс Фибич, Женни Клев, Эмманюэль Рива...
Продолжительность: 01:33:37
Перевод: Профессиональный (двухголосый закадровый)

Дата мировой премьеры: 10.12.97
Дата выхода DVD релиза: 11.09.08
Видеокодек: MPEG-4 AVC/H.264
Битрейт видео: ~1966 Кбит/сек
Размер кадра: 768x576
Качество видео: DVDRip
Аудиокодек: AC3 2.0
Битрейт аудио: 192 Кбит/сек
Аудио 1: (Dolby AC3 2.0) 192 Кбит/сек Русский
Аудио 2: (Dolby AC3 2.0) 192 Кбит/сек Французский

MediaInfo:

Общее
Уникальный идентификатор : 168348648403719580577546155723716462494 (0x7EA6C532C2870C1E037BA147C20E879E)
Полное имя : H:\!V\!Подгот\XXL.1997 DVDRip\XXL.1997.mkv
Формат : Matroska
Версия формата : Version 2
Размер файла : 1,57 Гбайт
Продолжительность : 1 ч. 33 м.
Общий поток : 2398 Кбит/сек
Программа кодирования : Lavf51.12.1
Библиотека кодирования : Lavf51.12.1
Видео
Идентификатор : 1
Формат : AVC
Формат/Информация : Advanced Video Codec
Профиль формата : [url=mailto:[email protected]][email protected][/url]
Параметр CABAC формата : Нет
Параметр ReFrames формата : 1 кадр
Параметр GOP формата : M=1, N=12
Идентификатор кодека : V_MPEG4/ISO/AVC
Продолжительность : 1 ч. 33 м.
Битрейт : 1966 Кбит/сек
Ширина : 768 пикселей
Высота : 576 пикселей
Соотношение сторон : 4:3
Режим частоты кадров : Постоянный
Частота кадров : 23,976 кадра/сек
Цветовое пространство : YUV
Субдискретизация насыщенности : 4:2:0
Битовая глубина : 8 бит
Тип развёртки : Прогрессивная
Бит/(Пиксели*Кадры) : 0.185
Размер потока : 1,29 Гбайт (82%)
Default : Да
Forced : Нет
Аудио #1
Идентификатор : 2
Формат : AC-3
Формат/Информация : Audio Coding 3
Расширение режима : CM (complete main)
Параметр Endianness формата : Big
Идентификатор кодека : A_AC3
Продолжительность : 1 ч. 33 м.
Вид битрейта : Постоянный
Битрейт : 192 Кбит/сек
Каналы : 2 канала
Расположение каналов : Front: L R
Частота : 48,0 КГц
Битовая глубина : 16 бит
Метод сжатия : С потерями
Размер потока : 129 Мбайт (8%)
Default : Да
Forced : Нет
Аудио #2
Идентификатор : 3
Формат : AC-3
Формат/Информация : Audio Coding 3
Расширение режима : CM (complete main)
Параметр Endianness формата : Big
Идентификатор кодека : A_AC3
Продолжительность : 1 ч. 33 м.
Вид битрейта : Постоянный
Битрейт : 192 Кбит/сек
Каналы : 2 канала
Расположение каналов : Front: L R
Частота : 48,0 КГц
Битовая глубина : 16 бит
Метод сжатия : С потерями
Размер потока : 129 Мбайт (8%)
Default : Да
Forced : Нет
Скриншоты:
         
         
Вне форума [Профиль] [ЛС]
Показать сообщения:    
Ответить на тему

Текущее время: Сегодня 09:45

Часовой пояс: GMT + 3



Вы не можете начинать темы
Вы не можете отвечать на сообщения
Вы не можете редактировать свои сообщения
Вы не можете удалять свои сообщения
Вы не можете голосовать в опросах
Вы не можете прикреплять файлы к сообщениям
Вы не можете скачивать файлы