Сегодня идет свободное скачивание без начисления Download

Пригородные поезда / Les tortillards (1960) [H.264] DVDRip

Ответить на тему
 
Автор
Сообщение

Omen ®

Стаж: 4 года 1 месяц

Сообщений: 194394

Торрент-статистика

Пост 16-Янв-2013 04:44

[Цитировать]

-Пригородные поезда / Les tortillards (1960) [H.264] DVDRip- Русское название: Пригородные поезда
Оригинальное название: Les tortillards
Год выпуска: 1960
Жанр: Комедия
Описание фильма:
Эмиль Дюран, изобретатель инсектицида, он обеспеченный человек, но как часто бывает, в семье у него проблемы.
Его сын Жерар влюблен в комедиантку, которая играет в бродячем театре, во главе которого Цезарь Беоминет. Жерару нравится театр и он покидает родные пинаты и пускается во всякие вместе с труппой артистов.
Эмиль находит выход из этого положения, он использует театр в качестве рекламы своего препарата…
Режиссер: Жан Бастиа
Актеры: Жан Ришар, Роже Пьер, Луи де Фюнес, Даниель Лебрюн, Анник Танги, Робер Роллис, Макс Деро, Билли Бурбон, Мадлен Барбюле
Продолжительность: 01:28:03
Перевод: Одноголосый закадровый

Дата мировой премьеры: 30.12.60
Видеокодек: MPEG-4 AVC/H.264
Битрейт видео: ~2263 Кбит/сек
Размер кадра: 768x576
Качество видео: DVDRip
Аудиокодек: AC3 2.0
Битрейт аудио: 192 Кбит/сек
Audio1: AC3 2.0, 192 Кбит/сек - русский
Audio1: AC3 2.0, 192 Кбит/сек - французский

MediaInfo:

Общее
Уникальный идентификатор : 168348648403719580577546155723716462494 (0x7EA6C532C2870C1E037BA147C20E879E)
Полное имя : \\Lenov450\1112\Пригородные поезда DVDRip\Пригородные поезда [H.264] DVDRip.mkv
Формат : Matroska
Версия формата : Version 2
Размер файла : 1,66 Гбайт
Продолжительность : 1 ч. 28 м.
Общий поток : 2701 Кбит/сек
Программа кодирования : Lavf51.12.1
Библиотека кодирования : Lavf51.12.1
Видео
Идентификатор : 1
Формат : AVC
Формат/Информация : Advanced Video Codec
Профиль формата : [url=mailto:[email protected]][email protected][/url]
Параметр CABAC формата : Нет
Параметр ReFrames формата : 1 кадр
Параметр GOP формата : M=1, N=12
Идентификатор кодека : V_MPEG4/ISO/AVC
Продолжительность : 1 ч. 28 м.
Битрейт : 2263 Кбит/сек
Ширина : 768 пикселей
Высота : 576 пикселей
Соотношение сторон : 4:3
Режим частоты кадров : Постоянный
Частота кадров : 25,000 кадров/сек
Цветовое пространство : YUV
Субдискретизация насыщенности : 4:2:0
Битовая глубина : 8 бит
Тип развёртки : Прогрессивная
Бит/(Пиксели*Кадры) : 0.205
Размер потока : 1,39 Гбайт (84%)
Default : Да
Forced : Нет
Аудио #1
Идентификатор : 2
Формат : AC-3
Формат/Информация : Audio Coding 3
Расширение режима : CM (complete main)
Параметр Endianness формата : Big
Идентификатор кодека : A_AC3
Продолжительность : 1 ч. 28 м.
Вид битрейта : Постоянный
Битрейт : 192 Кбит/сек
Каналы : 2 канала
Расположение каналов : Front: L R
Частота : 48,0 КГц
Битовая глубина : 16 бит
Метод сжатия : С потерями
Размер потока : 121 Мбайт (7%)
Default : Да
Forced : Нет
Аудио #2
Идентификатор : 3
Формат : AC-3
Формат/Информация : Audio Coding 3
Расширение режима : CM (complete main)
Параметр Endianness формата : Big
Идентификатор кодека : A_AC3
Продолжительность : 1 ч. 28 м.
Вид битрейта : Постоянный
Битрейт : 192 Кбит/сек
Каналы : 2 канала
Расположение каналов : Front: L R
Частота : 44,1 КГц
Битовая глубина : 16 бит
Метод сжатия : С потерями
Размер потока : 121 Мбайт (7%)
Default : Да
Forced : Нет
Скриншоты:
         
         
Вне форума [Профиль] [ЛС]
Похожие темы
Форум Тема Автор Торрент Отв. Посл. сообщение
./templates/default/images/folder_dl.gif Зарубежное кино Смертный приговор / Death Sentence (Джеймс Ван / James Wan) [2007, США, боевик, триллер, драма, BDRip 720p] MVO (Киномания) + DVO (П.Гланц и И.Королева) + AVO (Немахов) + VO (Яроцкий) + Original Eng + subs (Rus, Eng) Omen
1 | 0

0 | 592

8

2015-02-27 21:00
Omen Последнее
Показать сообщения:    
Ответить на тему

Текущее время: Сегодня 17:36

Часовой пояс: GMT + 3



Вы не можете начинать темы
Вы не можете отвечать на сообщения
Вы не можете редактировать свои сообщения
Вы не можете удалять свои сообщения
Вы не можете голосовать в опросах
Вы не можете прикреплять файлы к сообщениям
Вы не можете скачивать файлы