Сегодня идет свободное скачивание без начисления Download

Стивен Кинг. Коллекция фильмов. Дополнение / (1980-2011) DVDRip/BDRip

Ответить на тему
 
Автор
Сообщение

Omen ®

Стаж: 4 года 1 месяц

Сообщений: 194390

Торрент-статистика

Пост 20-Янв-2013 04:17

[Цитировать]

-Стивен Кинг. Коллекция фильмов. Дополнение / (1980-2011) DVDRip/BDRip- Русское название: Стивен Кинг.
Оригинальное название: Коллекция фильмов.
Год выпуска:
Жанр: Ужасы, Фэнтези, Триллер
Видеокодек: XviD
Битрейт видео: 1137 Кбит/сек
Размер кадра: 640х344
Качество видео: DVDrip
Аудиокодек: MP3
Битрейт аудио: 128 Кбит/сек
Фильмы отсортированны по году выхода на экран. Дополнение

Стивен Кинг-Бугимен/The Boogeyman 1980 год

Русское название: Бугимен
Оригинальное название: The Boogeyman
Год выпуска: 1980
Жанр: Ужасы, Фэнтези, Триллер
Описание фильма: Маленькая Лейси и ее брат Уилли подглядывают через окно за своей пьяной матерью, которая развлекается с очередным любовником. Взрослые замечают, что дети наблюдают за ними, и принимают меры к тому, чтобы маленькие негодники оставили их в покое. Какие меры? Самые суровые! Приятель матери привязывает Уилли к кровати и затыкает рот кляпом.
Мальчику удается высвободиться; он хватает нож и идет в материнскую спальню. В зеркальном отражении Лейси видит, как рука брата вонзает нож в спину любовника матери. В эту ночь Уилли теряет дар речи и покой на всю жизнь. Проходит двадцать лет. Лейси и немой Уилли по-прежнему неразлучны. Они уже живут в другом городе. Лейси замужем за хорошим человеком и у нее есть сын, что не мешает ей заботиться о брате. Однажды Лейси и Уилли получают письмо от матери. В своем письме она заявляет детям о своем праве увидеть их в последний раз перед смертью. Письмо шокирует Уилли и Лейси: их мать никогда не помнила о своих обязанностях и вот теперь смеет требовать от них выполнения долга! Обсудив ситуацию с мужем, Лейси решается на возвращение в страшный дом своего трудного детства. Когда разбивается то самое зеркало, которое двадцать лет назад отразило убийство, в точном соответствии с приметой происходит беда. Злой дух убитого мужчины выходит на свободу, чтобы отомстить.
Режиссер: Улли Ломмел
Актеры: Сюзанна Лав , Рон Джеймс , Джон Кэрредин , Николас Лав , Рэймонд Бойден , Фелисите Морган
Продолжительность: 01:21:14
Перевод: Профессиональный многоголосный
Видеокодек: XviD
Битрейт видео: 1137 Кбит/сек
Размер кадра: 640х344
Качество видео: DVDrip
Аудиокодек: MP3
Битрейт аудио: 128 Кбит/сек

Media info:

Формат : AVI
Формат/Информация : Audio Video Interleave
Размер файла : 747 Мбайт
Продолжительность : 1 ч. 21 м.
Общий поток : 1277 Кбит/сек
Программа кодирования : VirtualDubMod 1.5.10.2 (build 2540/release)
Библиотека кодирования : VirtualDubMod build 2540/release
Видео
Идентификатор : 0
Формат : MPEG-4 Visual
Профиль формата : Advanced [email protected]
Параметр BVOP формата : 1
Параметр QPel формата : Нет
Параметр GMC формата : Без точки перехода
Параметр матрицы формата : Default (H.263)
Идентификатор кодека : XVID
Идентификатор кодека/Подсказка : XviD
Продолжительность : 1 ч. 21 м.
Битрейт : 1137 Кбит/сек
Ширина : 640 пикселей
Высота : 344 пикселя
Соотношение сторон : 1,85:1
Частота кадров : 29,970 кадров/сек
Цветовое пространство : YUV
Субдискретизация насыщенности : 4:2:0
Битовая глубина : 8 бит
Тип развёртки : Прогрессивная
Метод сжатия : С потерями
Бит/(Пиксели*Кадры) : 0.172
Размер потока : 665 Мбайт (89%)
Библиотека кодирования : XviD 1.2.0.dev47 (UTC 2006-11-01)
Аудио
Идентификатор : 1
Формат : MPEG Audio
Версия формата : Version 1
Профиль формата : Layer 3
Идентификатор кодека : 55
Идентификатор кодека/Подсказка : MP3
Продолжительность : 1 ч. 21 м.
Вид битрейта : Постоянный
Битрейт : 128 Кбит/сек
Каналы : 2 канала
Частота : 48,0 КГц
Метод сжатия : С потерями
Размер потока : 74,9 Мбайт (10%)
Выравнивание : Соединение по промежуткам
Продолжительность промежутка : 33 мс. (1,00 видеокадр)
Время предзагрузки промежутка : 504 мс.
Библиотека кодирования : LAME3.97
Настройки программы : -m s -V 4 -q 2 -lowpass 17 -b 128
Скриншоты:
       
Время раздачи: с 8:00 до 24:00

Стивен Кинг-Женщина в комнате / The Woman In The Room 1983 год

Русское название: Женщина в комнате
Оригинальное название: The Woman In The Room
Год выпуска: 1983
Жанр: Ужасы, Фэнтези, Триллер
Описание фильма: Экранизация одноименного расказа Стивена Кинга из сборника "Ночная Смена" (1978)
Режиссер: Фрэнк Дарабонт
Актеры: Майкл Корнелисон, Ди Крокстон, Брайан Либби
Продолжительность: 00:30:17
Перевод: Одноголосный закадровый любительский
Видеокодек: XviD
Битрейт видео: 1468 Кбит/сек
Размер кадра: 640х480
Качество видео: VHSRip
Аудиокодек: MP3
Битрейт аудио: 320 Кбит/сек

Media info:

Формат : AVI
Формат/Информация : Audio Video Interleave
Размер файла : 391 Мбайт
Продолжительность : 30 м.
Общий поток : 1800 Кбит/сек
Программа кодирования : VirtualDubMod 1.5.10.2 (build 2540/release)
Библиотека кодирования : VirtualDubMod build 2540/release
Видео
Идентификатор : 0
Формат : MPEG-4 Visual
Параметр BVOP формата : Да
Параметр QPel формата : Нет
Параметр GMC формата : Без точки перехода
Параметр матрицы формата : Default (H.263)
Идентификатор кодека : XVID
Идентификатор кодека/Подсказка : XviD
Продолжительность : 30 м.
Битрейт : 1468 Кбит/сек
Ширина : 640 пикселей
Высота : 480 пикселей
Соотношение сторон : 4:3
Частота кадров : 29,970 кадров/сек
Цветовое пространство : YUV
Субдискретизация насыщенности : 4:2:0
Битовая глубина : 8 бит
Тип развёртки : Прогрессивная
Метод сжатия : С потерями
Бит/(Пиксели*Кадры) : 0.159
Размер потока : 319 Мбайт (82%)
Аудио
Идентификатор : 1
Формат : MPEG Audio
Версия формата : Version 1
Профиль формата : Layer 3
Идентификатор кодека : 55
Идентификатор кодека/Подсказка : MP3
Продолжительность : 30 м.
Вид битрейта : Постоянный
Битрейт : 320 Кбит/сек
Каналы : 2 канала
Частота : 44,1 КГц
Метод сжатия : С потерями
Задержка видео : 26 мс.
Размер потока : 69,5 Мбайт (18%)
Выравнивание : Разделение по промежуткам
Продолжительность промежутка : 33 мс. (1,00 видеокадр)
Время предзагрузки промежутка : 500 мс.
Библиотека кодирования : LAME3.93ЄЄЄЄЄЄЄЄЄЄЄЄ
Скриншоты:
       
Время раздачи: с 8:00 до 24:00

Стивен Кинг-Сражение/Сражение 1986 год

Русское название: Сражение
Оригинальное название: Сражение
Год выпуска: 1986
Жанр: Ужасы, Фэнтези, Триллер
Описание фильма: Мультипликационный фильм по рассказу Стивена Кинга «Поле боя» ("Battleground") о том, как игрушечные солдатики отомстили убийце владельца компании по производству игрушек.
Режиссер: Михаил Титов
Продолжительность: 00:09:49
Перевод: Одноголосный закадровый
Видеокодек: XviD
Битрейт видео: 1652 Кбит/сек
Размер кадра: 704х528
Качество видео: SAT-RiP
Аудиокодек: AC-3
Битрейт аудио: 192 Кбит/сек

Media info:

Формат : AVI
Формат/Информация : Audio Video Interleave
Размер файла : 130 Мбайт
Продолжительность : 9 м. 49 с.
Общий поток : 1850 Кбит/сек
Видео
Идентификатор : 0
Формат : MPEG-4 Visual
Профиль формата : Advanced [email protected]
Параметр BVOP формата : 2
Параметр QPel формата : Нет
Параметр GMC формата : Без точки перехода
Параметр матрицы формата : Default (H.263)
Режим смешивания : Сжатый битовый поток
Идентификатор кодека : XVID
Идентификатор кодека/Подсказка : XviD
Продолжительность : 9 м. 49 с.
Битрейт : 1652 Кбит/сек
Ширина : 704 пикселя
Высота : 528 пикселей
Соотношение сторон : 4:3
Частота кадров : 25,000 кадров/сек
Цветовое пространство : YUV
Субдискретизация насыщенности : 4:2:0
Битовая глубина : 8 бит
Тип развёртки : Прогрессивная
Метод сжатия : С потерями
Бит/(Пиксели*Кадры) : 0.178
Размер потока : 116 Мбайт (89%)
Библиотека кодирования : XviD 1.2.1 (UTC 2008-12-04)
Аудио
Идентификатор : 1
Формат : AC-3
Формат/Информация : Audio Coding 3
Расширение режима : CM (complete main)
Параметр Endianness формата : Big
Идентификатор кодека : 2000
Продолжительность : 9 м. 49 с.
Вид битрейта : Постоянный
Битрейт : 192 Кбит/сек
Каналы : 2 канала
Расположение каналов : Front: L R
Частота : 48,0 КГц
Битовая глубина : 16 бит
Метод сжатия : С потерями
Размер потока : 13,5 Мбайт (10%)
Выравнивание : Соединение по промежуткам
Продолжительность промежутка : 200 мс. (5,00 видеокадров)
Скриншоты:
       
Время раздачи: с 8:00 до 24:00

Стивен Кинг-Призраки/Ghosts 1997 год

Русское название: Призраки
Оригинальное название: Ghosts
Год выпуска: 1997
Жанр: Ужасы, Фэнтези, Триллер
Описание фильма: Небольшой городок обеспокоен: в старом Доме На Холме, пользующемся дурной славой дома с привидениями, поселился странный человек, называющий себя "Маэстро". Он совсем не похож на местных горожан, но его обожают дети, которых он развлекает магическими фокусами и удивительными, жутковатыми чудесами.
Мэр города и несколько разгневанных горожан сочли Маэстро опасным фриком, который дурно влияет на подрастающее поколение, и решили принудить его уехать прочь из городка.
С этой целью они являются однажды в Дом на Холме и ставят Маэстро ультиматум: либо он уедет из их города, либо его ждут большие неприятности...
Режиссер: Стэн Уинстон
Актеры: Пэт Даде, Эми Смоллмэн, Эдвина Мур, Сет Смит, Кендалл Каннингэм, Лорен Рэндольф, Хезер Элерс, Майкл Балдерама, Трой Бургесс, Джон Грегори, Трэвис Пэйн, Майкл Грегори, Миа Питтс, Хезер Хэдли, Паула Харрисон, Джои Шеттлер, Крис Джадд, Ричард Ким, Мик Томпсон, Дорри Конно, Стэйси Уолкер, Андреа Келли Конно, Мишель Вебер, Сьюзи МакДональд, Кортни Миллер, Чарли Э. Шмидт мл., Лиза Джоан Томпсон, Майк Смтисон
Продолжительность: 00:39:04
Перевод: Одноголосный закадровый
Видеокодек: DivX
Битрейт видео: 2021 Кбит/сек
Размер кадра: 720х540
Качество видео: DVDrip
Аудиокодек: AC-3
Аудио #1
Битрейт аудио: 192 Кбит/сек
Аудио #2
Битрейт аудио: 256 Кбит/сек

Media info:

Формат : AVI
Формат/Информация : Audio Video Interleave
Размер файла : 700 Мбайт
Продолжительность : 39 м.
Общий поток : 2487 Кбит/сек
Программа кодирования : VirtualDubMod 1.5.10.3 | www.virtualdub-fr.org || (build 2550/release)
Библиотека кодирования : VirtualDubMod build 2550/release
Видео
Идентификатор : 0
Формат : MPEG-4 Visual
Параметр BVOP формата : 3
Параметр QPel формата : Нет
Параметр GMC формата : Без точки перехода
Параметр матрицы формата : Default (H.263)
Режим смешивания : Сжатый битовый поток
Идентификатор кодека : DX50
Идентификатор кодека/Подсказка : DivX 5
Продолжительность : 39 м.
Битрейт : 2021 Кбит/сек
Ширина : 720 пикселей
Высота : 540 пикселей
Соотношение сторон : 4:3
Частота кадров : 29,970 кадров/сек
Цветовое пространство : YUV
Субдискретизация насыщенности : 4:2:0
Битовая глубина : 8 бит
Тип развёртки : Прогрессивная
Метод сжатия : С потерями
Бит/(Пиксели*Кадры) : 0.173
Размер потока : 569 Мбайт (81%)
Библиотека кодирования : DivX 3013
Аудио #1
Идентификатор : 1
Формат : AC-3
Формат/Информация : Audio Coding 3
Расширение режима : CM (complete main)
Параметр Endianness формата : Big
Идентификатор кодека : 2000
Продолжительность : 39 м.
Вид битрейта : Постоянный
Битрейт : 192 Кбит/сек
Каналы : 2 канала
Расположение каналов : Front: L R
Частота : 48,0 КГц
Битовая глубина : 16 бит
Метод сжатия : С потерями
Задержка видео : 12 мс.
Размер потока : 54,1 Мбайт (8%)
Выравнивание : Разделение по промежуткам
Продолжительность промежутка : 33 мс. (1,00 видеокадр)
Время предзагрузки промежутка : 500 мс.
Аудио #2
Идентификатор : 2
Формат : AC-3
Формат/Информация : Audio Coding 3
Расширение режима : CM (complete main)
Параметр Endianness формата : Big
Идентификатор кодека : 2000
Продолжительность : 39 м.
Вид битрейта : Постоянный
Битрейт : 256 Кбит/сек
Каналы : 2 канала
Расположение каналов : Front: L R
Частота : 48,0 КГц
Битовая глубина : 16 бит
Метод сжатия : С потерями
Задержка видео : 12 мс.
Размер потока : 72,1 Мбайт (10%)
Выравнивание : Разделение по промежуткам
Продолжительность промежутка : 33 мс. (1,00 видеокадр)
Время предзагрузки промежутка : 500 мс.
Скриншоты:
       
Время раздачи: с 8:00 до 24:00

Стивен Кинг-Сезон дождя / Stephen King's Rainy Season 2002 год

Русское название: Сезон дождя
Оригинальное название: Stephen King's Rainy Season
Год выпуска: 2002
Жанр: Ужасы, Фэнтези, Триллер
Описание фильма: Молодая парочка снимает летний домик в отдаленном городишке, чтобы хорошо провести время в тишине и покое. Но местные жители их предупреждают о смертельной опасности. О том, что ночью начинается сезон дождя - когда с неба падают не капли дождя, а огромные жабы.
Режиссер: Ник Воутерс
Актеры: Бенджамин Раус, Тоуна Хатчинсон, Ото Брезайна, Лай Роуз
Продолжительность: 00:15:14
Перевод: Любительский одноголосный закадровый
Видеокодек: XviD
Битрейт видео: 276 Кбит/сек
Размер кадра: 352х240
Качество видео: DVDrip
Аудиокодек: MP3
Битрейт аудио: 128 Кбит/сек

Media info:

Формат : AVI
Формат/Информация : Audio Video Interleave
Размер файла : 45,6 Мбайт
Продолжительность : 15 м.
Общий поток : 418 Кбит/сек
Программа кодирования : MEncoder SVN-r30881(20100311-gcc4.3.3)
Библиотека кодирования : MPlayer
Видео
Идентификатор : 0
Формат : MPEG-4 Visual
Профиль формата : Advanced [email protected]
Параметр BVOP формата : 2
Параметр QPel формата : Нет
Параметр GMC формата : Без точки перехода
Параметр матрицы формата : Default (H.263)
Идентификатор кодека : XVID
Идентификатор кодека/Подсказка : XviD
Продолжительность : 15 м.
Битрейт : 276 Кбит/сек
Ширина : 352 пикселя
Высота : 240 пикселей
Соотношение сторон : 3:2
Соотношение сторон в оригинале : 4:3
Частота кадров : 29,970 кадров/сек
Стандарт вещания : NTSC
Цветовое пространство : YUV
Субдискретизация насыщенности : 4:2:0
Битовая глубина : 8 бит
Тип развёртки : Прогрессивная
Метод сжатия : С потерями
Бит/(Пиксели*Кадры) : 0.109
Размер потока : 30,2 Мбайт (66%)
Библиотека кодирования : XviD 1.2.1 (UTC 2008-12-04)
Аудио
Идентификатор : 1
Формат : MPEG Audio
Версия формата : Version 1
Профиль формата : Layer 3
Режим : Joint stereo
Расширение режима : MS Stereo
Идентификатор кодека : 55
Идентификатор кодека/Подсказка : MP3
Продолжительность : 15 м.
Вид битрейта : Постоянный
Битрейт : 128 Кбит/сек
Каналы : 2 канала
Частота : 44,1 КГц
Метод сжатия : С потерями
Задержка видео : 33 мс.
Размер потока : 14,0 Мбайт (31%)
Выравнивание : Соединение по промежуткам
Продолжительность промежутка : 26 мс. (0,78 видеокадр)
Время предзагрузки промежутка : 522 мс.
Скриншоты:
       
Время раздачи: с 8:00 до 24:00

Стивен Кинг-Участь Салема / Salem's Lot 2004 год

Русское название: Участь Салема
Оригинальное название: Salem's Lot
Год выпуска: 2004
Жанр: Ужасы, Фэнтези, Триллер
Описание фильма: Молодой писатель Бен Мейрс возвращается в провинциальный городок Иерусалимов Удел (или Салимов Удел, как его называют местные жители), куда его неумолимо влекут неизжитые тяжелые переживания детства и где он надеется освободиться от них, написав свою главную книгу. С приездом Мейрса в городке начинают случаться нехорошие события: поодиночке и целыми семьями бесследно исчезают жители. Когда же они, давно оплаканные, возвращаются, город содрогается от ужаса. Он обречен на гибель благодаря цепной реакции зла, распространяющейся подобно заразе...
Режиссер: Микаэл Саломон
Актеры: Роб Лоу, Дональд Сазерленд, Саманта Мэтис, Рутгер Хауэр, Андре Брогер, Роберт Маммоне, Дэн Берд, Джеймс Кромуэлл, Энди Андерсон, Роберт Грубб, Стивен Видлер, Пенни МакНэ
Продолжительность: 03:01:07
Перевод: Профессиональный многоголосный
Видеокодек: XviD
Битрейт видео: 1016 Кбит/сек
Размер кадра: 656х368
Качество видео: DVDrip
Аудиокодек: MP3
Битрейт аудио: 128 Кбит/сек

Media info:

Формат : AVI
Формат/Информация : Audio Video Interleave
Размер файла : 1,46 Гбайт
Продолжительность : 3 ч. 1 м.
Общий поток : 1153 Кбит/сек
Название фильма : Uchast'.Salema_2004_DVDRip
Режиссёр : ZobaNupa
Программа кодирования : VirtualDubMod 1.5.10.2 (build 2540/release)
Правообладатель : Torrents.Ru
Видео
Идентификатор : 0
Формат : MPEG-4 Visual
Профиль формата : Advanced [email protected]
Параметр BVOP формата : 1
Параметр QPel формата : Нет
Параметр GMC формата : Без точки перехода
Параметр матрицы формата : Выборочная
Идентификатор кодека : XVID
Идентификатор кодека/Подсказка : XviD
Продолжительность : 3 ч. 1 м.
Битрейт : 1016 Кбит/сек
Ширина : 656 пикселей
Высота : 368 пикселей
Соотношение сторон : 16:9
Частота кадров : 23,976 кадра/сек
Цветовое пространство : YUV
Субдискретизация насыщенности : 4:2:0
Битовая глубина : 8 бит
Тип развёртки : Прогрессивная
Метод сжатия : С потерями
Бит/(Пиксели*Кадры) : 0.176
Размер потока : 1,29 Гбайт (88%)
Библиотека кодирования : XviD 1.2.1 (UTC 2008-12-04)
Аудио
Идентификатор : 1
Формат : MPEG Audio
Версия формата : Version 1
Профиль формата : Layer 3
Идентификатор кодека : 55
Идентификатор кодека/Подсказка : MP3
Продолжительность : 3 ч. 1 м.
Вид битрейта : Постоянный
Битрейт : 128 Кбит/сек
Каналы : 2 канала
Частота : 48,0 КГц
Метод сжатия : С потерями
Размер потока : 166 Мбайт (11%)
Выравнивание : Соединение по промежуткам
Продолжительность промежутка : 42 мс. (1,00 видеокадр)
Время предзагрузки промежутка : 504 мс.
Библиотека кодирования : LAME3.98r
Настройки программы : -m s -V 4 -q 2 -lowpass 17 -b 128
Скриншоты:
       
Время раздачи: с 8:00 до 24:00

Стивен Кинг-Паранойя/Disturbia 2007 год

Русское название: Паранойя
Оригинальное название: Disturbia
Год выпуска: 2007
Жанр: Ужасы, Фэнтези, Триллер
Описание фильма: До автокатастрофы, в которой погиб его отец, жизнь Кейла и его семьи была пригородным раем: счастливая семья, живущая в прекрасном двухэтажном доме на лоне природы. Однако после гибели отца жизнь изменилась. Да еще когда один из школьных учителей Кейла позволит себе бестактную шутку по поводу отца, Кейл ответит ему так, что окажется в суде. Его приговаривают к домашнему аресту: он должен носить на ноге браслет, который сигнализирует полиции, если он отойдет от дома дальше, чем на тридцать метров. Теперь он сходит с ума в собственном доме, пока его мама пытается свести концы с концами, работая почти круглосуточно. Окна его дома становятся его миром. Он не хочет разбираться со своими чувствами, потому что это для него слишком болезненно. Так он начинает смотреть по сторонам, изучать боль и трагедии других людей, формирование и распад их взаимоотношений. И в процессе этого он находит человека, которого он считает убийцей.
Режиссер: Д. Дж. Карузо
Актеры: Шайа ЛаБаф, Сара Ремер, Кэрри-Энн Мосс, Дэвид Морс, Аарон Йу, Хосе Пабло Кантилльо, Мэтт Крэвен, Виола Дэвис, Брэндон Карузо, Лучиано Раузо
Продолжительность: 01:44:36
Перевод: Профессиональный многоголосный
Видеокодек: XviD
Битрейт видео: 608 Кбит/сек
Размер кадра: 480х272
Качество видео: BDRip
Аудиокодек: MP3
Битрейт аудио: 128 Кбит/сек

Media info:

Формат : AVI
Формат/Информация : Audio Video Interleave
Размер файла : 560 Мбайт
Продолжительность : 1 ч. 44 м.
Общий поток : 748 Кбит/сек
Программа кодирования : MEncoder SVN-r30881(20100311-gcc4.3.3)
Библиотека кодирования : MPlayer
Видео
Идентификатор : 0
Формат : MPEG-4 Visual
Профиль формата : Advanced [email protected]
Параметр BVOP формата : 2
Параметр QPel формата : Нет
Параметр GMC формата : Без точки перехода
Параметр матрицы формата : Default (H.263)
Идентификатор кодека : XVID
Идентификатор кодека/Подсказка : XviD
Продолжительность : 1 ч. 44 м.
Битрейт : 608 Кбит/сек
Ширина : 480 пикселей
Высота : 272 пикселя
Соотношение сторон : 16:9
Соотношение сторон в оригинале : 16:9
Частота кадров : 23,976 кадра/сек
Цветовое пространство : YUV
Субдискретизация насыщенности : 4:2:0
Битовая глубина : 8 бит
Тип развёртки : Прогрессивная
Метод сжатия : С потерями
Бит/(Пиксели*Кадры) : 0.194
Размер потока : 455 Мбайт (81%)
Библиотека кодирования : XviD 1.2.1 (UTC 2008-12-04)
Аудио
Идентификатор : 1
Формат : MPEG Audio
Версия формата : Version 1
Профиль формата : Layer 3
Режим : Joint stereo
Расширение режима : MS Stereo
Идентификатор кодека : 55
Идентификатор кодека/Подсказка : MP3
Продолжительность : 1 ч. 44 м.
Вид битрейта : Постоянный
Битрейт : 128 Кбит/сек
Каналы : 2 канала
Частота : 44,1 КГц
Метод сжатия : С потерями
Задержка видео : 42 мс.
Размер потока : 95,8 Мбайт (17%)
Выравнивание : Соединение по промежуткам
Продолжительность промежутка : 26 мс. (0,63 видеокадр)
Время предзагрузки промежутка : 522 мс.
Библиотека кодирования : LAME3.98
Скриншоты:
       
Время раздачи: с 8:00 до 24:00

Стивен Кинг-Кадиллак Долана/Dolan's Cadillac 2009 год

Русское название: Кадиллак Долана
Оригинальное название: Dolan's Cadillac
Год выпуска: 2009
Жанр: Ужасы, Фэнтези, Триллер
Описание фильма: Семь долгих лет Робинсон мечтал о мести — босс мафии Джимми Долан приказал убить его жену, собирающуюся давать показания против Долана в суде. Преступники взрывают машину жены Робинсона и остаются безнаказанными. Семь долгих лет, слыша в своем сознании голос погибшей супруги, Робинсон разрабатывал идеальный план возмездия…
Режиссер: Джефф Бисли
Актеры: Эми Матисио, Саймон Чин, Мелани Бурант, Дарла Биккум, Роберт Бенц, Эл Сапьенза
Продолжительность: 01:28:34
Перевод: Профессиональный многоголосный
Видеокодек: XviD
Битрейт видео: 1571 Кбит/сек
Размер кадра: 720х304
Качество видео: DVDrip
Аудиокодек: AC-3
Битрейт аудио: 384 Кбит/сек

Media info:

Формат : AVI
Формат/Информация : Audio Video Interleave
Размер файла : 1,46 Гбайт
Продолжительность : 1 ч. 28 м.
Общий поток : 2353 Кбит/сек
Программа кодирования : VirtualDubMod 1.5.10.2 (build 2542/release)
Библиотека кодирования : VirtualDubMod build 2542/release
Видео
Идентификатор : 0
Формат : MPEG-4 Visual
Профиль формата : Advanced [email protected]
Параметр BVOP формата : 1
Параметр QPel формата : Нет
Параметр GMC формата : Без точки перехода
Параметр матрицы формата : Выборочная
Идентификатор кодека : XVID
Идентификатор кодека/Подсказка : XviD
Продолжительность : 1 ч. 28 м.
Битрейт : 1571 Кбит/сек
Ширина : 720 пикселей
Высота : 304 пикселя
Соотношение сторон : 2,35:1
Частота кадров : 23,976 кадра/сек
Цветовое пространство : YUV
Субдискретизация насыщенности : 4:2:0
Битовая глубина : 8 бит
Тип развёртки : Прогрессивная
Метод сжатия : С потерями
Бит/(Пиксели*Кадры) : 0.299
Размер потока : 998 Мбайт (67%)
Библиотека кодирования : XviD 1.2.1 (UTC 2008-12-04)
Аудио #1
Идентификатор : 1
Формат : AC-3
Формат/Информация : Audio Coding 3
Расширение режима : CM (complete main)
Параметр Endianness формата : Big
Идентификатор кодека : 2000
Продолжительность : 1 ч. 28 м.
Вид битрейта : Постоянный
Битрейт : 384 Кбит/сек
Каналы : 6 каналов
Расположение каналов : Front: L C R, Side: L R, LFE
Частота : 48,0 КГц
Битовая глубина : 16 бит
Метод сжатия : С потерями
Размер потока : 244 Мбайт (16%)
Выравнивание : Разделение по промежуткам
Продолжительность промежутка : 42 мс. (1,00 видеокадр)
Время предзагрузки промежутка : 500 мс.
Аудио #2
Идентификатор : 2
Формат : AC-3
Формат/Информация : Audio Coding 3
Расширение режима : CM (complete main)
Параметр Endianness формата : Big
Идентификатор кодека : 2000
Продолжительность : 1 ч. 28 м.
Вид битрейта : Постоянный
Битрейт : 384 Кбит/сек
Каналы : 6 каналов
Расположение каналов : Front: L C R, Side: L R, LFE
Частота : 48,0 КГц
Битовая глубина : 16 бит
Метод сжатия : С потерями
Размер потока : 244 Мбайт (16%)
Выравнивание : Разделение по промежуткам
Продолжительность промежутка : 42 мс. (1,00 видеокадр)
Время предзагрузки промежутка : 500 мс.
Скриншоты:
       
Время раздачи: с 8:00 до 24:00

Стивен Кинг-Дети кукурузы: Генезис / Children of the Corn: Genesis 2011 год

Русское название: Дети кукурузы: Генезис
Оригинальное название: Children of the Corn: Genesis
Год выпуска: 2011
Жанр: Ужасы, Фэнтези, Триллер
Описание фильма: Сломав машину и застряв посреди калифорнийской пустыни, Тим с беременной женой Элли к вечеру добираются до небольшой фермы. Ферма принадлежит стареющему проповеднику Коулу и его супруге Хелен, которые разрешают гостям воспользоваться телефоном и позволяют остаться у них до утра. Хозяева впрочем кажутся подозрительными, а ночью Элли слышит детский плач, раздающийся из стоящего во дворе запертого сарая.
Режиссер: Джоэль Сойзон
Актеры: Джозеф Баницки, Дасти Бёрвэлл, Кай Кастер, Келен Колеман, Билли Драго, Барбара Неделякова, Тим Рок, Дуан Уайтакер
Продолжительность: 01:20:41
Перевод: Любительский одноголосный закадровый
Видеокодек: XviD
Битрейт видео: 1077 Кбит/сек
Размер кадра: 640х272
Качество видео: HDRip
Аудиокодек: MP3
Битрейт аудио: 128 Кбит/сек

Media info:

Формат : AVI
Формат/Информация : Audio Video Interleave
Размер файла : 700 Мбайт
Продолжительность : 1 ч. 20 м.
Общий поток : 1215 Кбит/сек
Программа кодирования : VirtualDubMod 1.5.4.1 (build 2178/release)
Библиотека кодирования : VirtualDubMod build 2178/release
Видео
Идентификатор : 0
Формат : MPEG-4 Visual
Профиль формата : Advanced [email protected]
Параметр BVOP формата : 2
Параметр QPel формата : Нет
Параметр GMC формата : Без точки перехода
Параметр матрицы формата : Выборочная
Идентификатор кодека : XVID
Идентификатор кодека/Подсказка : XviD
Продолжительность : 1 ч. 20 м.
Битрейт : 1077 Кбит/сек
Ширина : 640 пикселей
Высота : 272 пикселя
Соотношение сторон : 2,35:1
Частота кадров : 23,976 кадра/сек
Цветовое пространство : YUV
Субдискретизация насыщенности : 4:2:0
Битовая глубина : 8 бит
Тип развёртки : Прогрессивная
Метод сжатия : С потерями
Бит/(Пиксели*Кадры) : 0.258
Размер потока : 621 Мбайт (89%)
Библиотека кодирования : XviD 58
Аудио
Идентификатор : 1
Формат : MPEG Audio
Версия формата : Version 1
Профиль формата : Layer 3
Идентификатор кодека : 55
Идентификатор кодека/Подсказка : MP3
Продолжительность : 1 ч. 20 м.
Вид битрейта : Постоянный
Битрейт : 128 Кбит/сек
Каналы : 2 канала
Частота : 48,0 КГц
Метод сжатия : С потерями
Размер потока : 73,8 Мбайт (11%)
Выравнивание : Соединение по промежуткам
Продолжительность промежутка : 42 мс. (1,00 видеокадр)
Время предзагрузки промежутка : 504 мс.
Библиотека кодирования : LAME3.98r
Настройки программы : -m s -V 4 -q 7 -lowpass 17 -b 128
Скриншоты:
       
Время раздачи: с 8:00 до 24:00

Стивен Кинг-Мешок с костями / Bag of Bones 2011 год

Русское название: Мешок с костями
Оригинальное название: Bag of Bones
Год выпуска: 2011
Жанр: Ужасы, Фэнтези, Триллер
Описание фильма: У писателя Майкла Нунена от аневризмы умирает жена Джоанна. После ее гибели известный на весь мир автор мистических романов намеренно делает из себя затворника, отгородившись от остального мира. Но проходит несколько лет, и по стечению обстоятельств писатель встречает девушку Мэтти, в которую влюбляется, хотя и не желает признаваться в этом самому себе. Его жизнь начинается с чистого листа. После признания в своих чувствах новоявленной невесте Майклу придется столкнуться с не менее жутким кошмаром, чем смерть собственной жены. Мистические приключения; реалистичные жуткие сны; жестокие родственники Мэтти, пытающиеся отправить писателя на тот свет, и конечно же появляющаяся время от времени Джоанна… Ее призрак все время пытается уберечь Майкла от неверного шага…
Режиссер: Мик Гэррис
Актеры: Пирс Броснан, Мелисса Джордж, Мэтт Фрюэр, Джейсон Пристли, Аннабет Гиш, Аника Нони Роуз, Уильям Шэллерт, Кэйтлин Кармайкл, Гари Леверт, David Sheftell
Продолжительность: 02:42:13
Перевод: Профессиональный многоголосный
Видеокодек: XviD
Битрейт видео:CD1 1069 Кбит/сек
Битрейт видео:CD2 1013 Кбит/сек
Размер кадра: 624х352
Качество видео: HDTVRip
Аудиокодек: MP3
Битрейт аудио: 128 Кбит/сек

Media info:СD1

Формат : AVI
Формат/Информация : Audio Video Interleave
Размер файла : 685 Мбайт
Продолжительность : 1 ч. 19 м.
Общий поток : 1206 Кбит/сек
Программа кодирования : VirtualDubMod 1.5.10.3 (build 2550/release)
Библиотека кодирования : VirtualDubMod build 2550/release
Видео
Идентификатор : 0
Формат : MPEG-4 Visual
Профиль формата : Advanced [email protected]
Параметр BVOP формата : 2
Параметр QPel формата : Нет
Параметр GMC формата : Без точки перехода
Параметр матрицы формата : Default (H.263)
Идентификатор кодека : XVID
Идентификатор кодека/Подсказка : XviD
Продолжительность : 1 ч. 19 м.
Битрейт : 1069 Кбит/сек
Ширина : 624 пикселя
Высота : 352 пикселя
Соотношение сторон : 16:9
Частота кадров : 23,976 кадра/сек
Цветовое пространство : YUV
Субдискретизация насыщенности : 4:2:0
Битовая глубина : 8 бит
Тип развёртки : Прогрессивная
Метод сжатия : С потерями
Бит/(Пиксели*Кадры) : 0.203
Размер потока : 607 Мбайт (89%)
Библиотека кодирования : XviD 1.2.1 (UTC 2008-12-04)
Аудио
Идентификатор : 1
Формат : MPEG Audio
Версия формата : Version 1
Профиль формата : Layer 3
Режим : Joint stereo
Расширение режима : MS Stereo
Идентификатор кодека : 55
Идентификатор кодека/Подсказка : MP3
Продолжительность : 1 ч. 19 м.
Вид битрейта : Постоянный
Битрейт : 128 Кбит/сек
Каналы : 2 канала
Частота : 48,0 КГц
Метод сжатия : С потерями
Задержка видео : 3 с. 480 мс.
Размер потока : 72,7 Мбайт (11%)
Выравнивание : Разделение по промежуткам
Продолжительность промежутка : 42 мс. (1,00 видеокадр)
Время предзагрузки промежутка : 504 мс.

Media info:СD2

Формат : AVI
Формат/Информация : Audio Video Interleave
Размер файла : 683 Мбайт
Продолжительность : 1 ч. 22 м.
Общий поток : 1151 Кбит/сек
Программа кодирования : VirtualDubMod 1.5.10.3 (build 2550/release)
Библиотека кодирования : VirtualDubMod build 2550/release
Видео
Идентификатор : 0
Формат : MPEG-4 Visual
Профиль формата : Advanced [email protected]
Параметр BVOP формата : 2
Параметр QPel формата : Нет
Параметр GMC формата : Без точки перехода
Параметр матрицы формата : Default (H.263)
Идентификатор кодека : XVID
Идентификатор кодека/Подсказка : XviD
Продолжительность : 1 ч. 22 м.
Битрейт : 1013 Кбит/сек
Ширина : 624 пикселя
Высота : 352 пикселя
Соотношение сторон : 16:9
Частота кадров : 23,976 кадра/сек
Цветовое пространство : YUV
Субдискретизация насыщенности : 4:2:0
Битовая глубина : 8 бит
Тип развёртки : Прогрессивная
Метод сжатия : С потерями
Бит/(Пиксели*Кадры) : 0.192
Размер потока : 601 Мбайт (88%)
Библиотека кодирования : XviD 1.2.1 (UTC 2008-12-04)
Аудио
Идентификатор : 1
Формат : MPEG Audio
Версия формата : Version 1
Профиль формата : Layer 3
Режим : Joint stereo
Расширение режима : MS Stereo
Идентификатор кодека : 55
Идентификатор кодека/Подсказка : MP3
Продолжительность : 1 ч. 22 м.
Вид битрейта : Постоянный
Битрейт : 128 Кбит/сек
Каналы : 2 канала
Частота : 48,0 КГц
Метод сжатия : С потерями
Размер потока : 75,9 Мбайт (11%)
Выравнивание : Соединение по промежуткам
Продолжительность промежутка : 42 мс. (1,00 видеокадр)
Время предзагрузки промежутка : 504 мс.
Скриншоты:
       
Время раздачи: с 8:00 до 24:00
Торент файл перезалит. Скачайте его по новому!!!
Вне форума [Профиль] [ЛС]
Похожие темы
Форум Тема Автор Торрент Отв. Посл. сообщение
./templates/default/images/folder_dl.gif Компьютерная литература Стивен Прата | Язык программирования C. Лекции и упражнения, 5-е издание (2013) [PDF] Omen
1 | 0

0 | 1274

13

2014-08-08 23:01
Omen Последнее
Показать сообщения:    
Ответить на тему

Текущее время: Сегодня 08:58

Часовой пояс: GMT + 3



Вы не можете начинать темы
Вы не можете отвечать на сообщения
Вы не можете редактировать свои сообщения
Вы не можете удалять свои сообщения
Вы не можете голосовать в опросах
Вы не можете прикреплять файлы к сообщениям
Вы не можете скачивать файлы