Сегодня идет свободное скачивание без начисления Download

Однажды в Америке / Once Upon a Time in America (1984) [720p] BDRip

Ответить на тему
 
Автор
Сообщение

Omen ®

Стаж: 4 года 1 месяц

Сообщений: 194394

Торрент-статистика

Пост 20-Янв-2013 04:19

[Цитировать]

-Однажды в Америке / Once Upon a Time in America (1984) BDRip- Русское название: Однажды в Америке
Оригинальное название: Once Upon a Time in America
Год выпуска: 1984
Страна: Италия, США
Жанр: Драма, Криминал
Описание фильма:
В бурные двадцатые годы, когда Америка веселилась под звуки джаза и каждый бродяга мечтал стать миллионером, в трущобах Нью-Йорка встретились несколько отчаянных парней. Убирая с дороги конкурентов, безжалостно карая предателей и нагло проворачивая хитроумные аферы, они стали королями преступного мира золотой эры «сухого закона». Они поклялись отдать жизнь друг за друга, зная, что самое главное для них — это дружба, долг и справедливость — не утопить в реках крови и бездонном океане денег. Спустя много лет судьба жестоко обошлась с легендарными гангстерами, заставив их исполнить свою клятву. Это случилось однажды в Америке…
Режиссер: Сержио Леоне / Sergio Leone
Актеры: Роберт Де Ниро, Джеймс Вудс, Элизабет МакГоверн, Джо Пеши, Берт Янг, Тьюзди Уэлд, Трит Уильямс, Дэнни Айелло, Ричард Брайт, Джеймс Хейден
Продолжительность: 3:49:19
Перевод: Профессиональный (многоголосый закадровый) - HTB+
Дополнительные переводы (внешним файлом):
• Профессиональный (многоголосый закадровый) - 3 варианта
• Профессиональный (двухголосый закадровый)
• Профессиональный (одноголосый закадровый)
• Авторский (одноголосый закадровый) - 8 вариантов

Язык субтитров: Русский, английский
Вид субтитров: Вшитые отключаемые- -Дата мировой премьеры: 17 февраля 1984
Дата выхода DVD релиза: 24 мая 2012, «CP Дистрибуция»
Видеокодек: MPEG-4 AVC/H.264
Битрейт видео: ~6730 Кбит/сек
Размер кадра: 1280x720
Качество видео: BDRip 720p
Контейнер: MKV
Аудиокодек: AC3 , DTS
Аудио #1: Русский ( AC3 / 5.1 / 48 kHz / 448 kbps )
Аудио #2: Английский ( DTS / 5.1 / 48 kHz / 1510 kbps )-Дополнительные аудиодороги:
Аудио #1: Русский ( AC3 / 5.1 / 48 kHz / 448 kbps ) - Профессиональный (многоголосый) - Позитив (с DVD)
Аудио #2: Русский ( DTS / 5.1 / 48 kHz / 1510 kbps ) - Профессиональный (многоголосый) - Позитив
Аудио #3: Русский ( AC3 / 5.1 / 48 kHz / 448 kbps ) - Профессиональный (многоголосый) - Киномания (Карусель)
Аудио #4: Русский ( DTS / 5.1 / 48 kHz / 1510 kbps ) - Профессиональный (двухголосый) - Гланц & Королева
Аудио #5: Русский ( AC3 / 2.0 / 48 kHz / 192 kbps ) - Профессиональный (одноголосый) - О.Борисов
Аудио #6: Русский ( AC3 / 5.1 / 48 kHz / 384 kbps ) - Профессиональный (одноголосый) - Л.Володарский
Аудио #7: Русский ( AC3 / 2.0 / 48 kHz / 192 kbps ) - Профессиональный (одноголосый) - А.Михалев
Аудио #8: Русский ( DTS / 5.1 / 48 kHz / 1510 kbps ) - Профессиональный (одноголосый) - Э.Шиндяпин
Аудио #9: Русский ( AC3 / 5.1 / 48 kHz / 448 kbps ) - Профессиональный (одноголосый) - Ю.Живов
Аудио #10: Русский ( AC3 / 2.0 / 48 kHz / 192 kbps ) - Профессиональный (одноголосый) - Ю.Сербин
Аудио #11: Русский ( AC3 / 2.0 / 48 kHz / 192 kbps ) - Профессиональный (одноголосый) - В.Горчаков
Аудио #12: Русский ( AC3 / 2.0 / 48 kHz / 192 kbps ) - Профессиональный (одноголосый) - А.Гаврилов (ранний)
Аудио #13: Русский ( AC3 / 2.0 / 48 kHz / 192 kbps ) - Профессиональный (одноголосый) - А.Гаврилов(поздний)-

Mediainfo

Общее
Уникальный идентификатор : 224363134228076969595638853294804007652 (0xA8CAC492A569E0B3B72BE9CB796D7AE4)
Полное имя : Однажды в Америке.1984.BDRip.720p\Однажды в Америке.1984.BDRip.720p..mkv
Формат : Matroska
Версия формата : Version 2
Размер файла : 14,2 Гбайт
Продолжительность : 3 ч. 49 м.
Общий поток : 8864 Кбит/сек
Название фильма : Однажды в Америке / Once Upon a Time in America (1984) [tRuAVC] [Geralt iz Rivii]
Дата кодирования : UTC 2013-01-19 15:09:23
Программа кодирования : mkvmerge v5.8.0 ('No Sleep / Pillow') built on Sep 2 2012 15:37:04
Библиотека кодирования : libebml v1.2.3 + libmatroska v1.3.0
Attachment : Yes
Видео
Идентификатор : 1
Формат : AVC
Формат/Информация : Advanced Video Codec
Профиль формата : [url=mailto:[email protected]][email protected][/url]
Параметр CABAC формата : Да
Параметр ReFrames формата : 8 кадров
Режим смешивания : Header stripping
Идентификатор кодека : V_MPEG4/ISO/AVC
Продолжительность : 3 ч. 49 м.
Битрейт : 6730 Кбит/сек
Ширина : 1280 пикселей
Высота : 720 пикселей
Соотношение сторон : 16:9
Режим частоты кадров : Постоянный
Частота кадров : 23,976 кадра/сек
Цветовое пространство : YUV
Субдискретизация насыщенности : 4:2:0
Битовая глубина : 8 бит
Тип развёртки : Прогрессивная
Бит/(Пиксели*Кадры) : 0.305
Размер потока : 10,8 Гбайт (76%)
Заголовок : Однажды в Америке / Once Upon a Time in America (1984) [tRuAVC] [Geralt iz Rivii]
Библиотека кодирования : x264 core 112 r1834kMod a51816a
Настройки программы : cabac=1 / ref=8 / deblock=1:-3:-3 / analyse=0x3:0x133 / me=umh / subme=10 / psy=1 / psy_rd=1.05:0.00 / mixed_ref=1 / me_range=64 / chroma_me=1 / trellis=2 / 8x8dct=1 / cqm=0 / deadzone=21,11 / fast_pskip=1 / chroma_qp_offset=-2 / threads=12 / sliced_threads=0 / nr=0 / decimate=1 / interlaced=0 / constrained_intra=0 / bframes=7 / b_pyramid=2 / b_adapt=2 / b_bias=0 / direct=3 / weightb=1 / open_gop=0 / weightp=2 / keyint=250 / keyint_min=23 / scenecut=40 / intra_refresh=0 / rc_lookahead=90 / rc=crf / mbtree=0 / crf=17.5000 / qcomp=0.60 / qpmin=0 / qpmax=51 / qpstep=4 / vbv_maxrate=50000 / vbv_bufsize=62500 / crf_max=0.0 / ip_ratio=1.40 / pb_ratio=1.30 / aq=2:1.00 / nal_hrd=none
Язык : English
Default : Да
Forced : Нет
Коэффициенты матрицы : BT.709
Аудио #1
Идентификатор : 2
Формат : AC-3
Формат/Информация : Audio Coding 3
Расширение режима : CM (complete main)
Параметр Endianness формата : Big
Режим смешивания : Header stripping
Идентификатор кодека : A_AC3
Продолжительность : 3 ч. 49 м.
Вид битрейта : Постоянный
Битрейт : 448 Кбит/сек
Каналы : 6 каналов
Расположение каналов : Front: L C R, Side: L R, LFE
Частота : 48,0 КГц
Битовая глубина : 16 бит
Метод сжатия : С потерями
Размер потока : 735 Мбайт (5%)
Заголовок : 48 kHz, AC-3, 5.1 ch, 448 kbps - MVO НТВ+
Язык : Russian
Default : Да
Forced : Нет
Аудио #2
Идентификатор : 3
Формат : DTS
Формат/Информация : Digital Theater Systems
Режим смешивания : Header stripping
Идентификатор кодека : A_DTS
Продолжительность : 3 ч. 49 м.
Вид битрейта : Постоянный
Битрейт : 1510 Кбит/сек
Каналы : 6 каналов
Расположение каналов : Front: L C R, Side: L R, LFE
Частота : 48,0 КГц
Битовая глубина : 24 бит
Метод сжатия : С потерями
Размер потока : 2,42 Гбайт (17%)
Заголовок : 48 kHz, dts, 5.1 ch, 1536 kbps - Original
Язык : English
Default : Нет
Forced : Нет
Текст #1
Идентификатор : 4
Формат : UTF-8
Идентификатор кодека : S_TEXT/UTF8
Идентификатор кодека/Информация : UTF-8 Plain Text
Заголовок : DVD Positive
Язык : Russian
Default : Нет
Forced : Нет
Текст #2
Идентификатор : 5
Формат : UTF-8
Идентификатор кодека : S_TEXT/UTF8
Идентификатор кодека/Информация : UTF-8 Plain Text
Заголовок : SDH
Язык : English
Default : Нет
Forced : Нет
Меню
00:00:00.000 : ru:Credits / Вступительные титры
00:02:23.351 : ru:Looking for Noodles / Поиски Лапши
00:05:44.677 : ru:Opium Visions / Под опиумом
00:11:29.855 : ru:Shadow-Play Intruders / Театр теней
00:13:45.824 : ru:Ambush at Fat Moe's / Засада у толстяка Мо
00:18:04.208 : ru:Locker Contents / Содержимое шкафчика
00:20:05.203 : ru:Slide Show Beckons / Отвлекающий маневр
00:21:57.274 : ru:Old Neighborhood / Старые знакомые
00:25:09.883 : ru:Return to Moe's / Возвращение к Мо
00:35:03.267 : ru:Deborah's Audience / Поклонники Деборы
00:41:40.206 : ru:Go Look at Yourself / Посмотри на себя
00:43:40.743 : ru:Bad News / Плохие новости
00:44:46.975 : ru:Sizing Up Targets / Неденежный расчет
00:46:23.697 : ru:Opportunity Botched / Упущенный шанс
00:48:56.683 : ru:Toilet Traffic / Туалетные расценки
00:52:33.108 : ru:Passing the Time / Спустя некоторое время
00:55:47.469 : ru:Payment Devoured / Основной инстинкт
01:00:05.476 : ru:Laying Down the Law / Постановление закона
01:03:44.862 : ru:Through Open Doors / Сквозь распахнутые двери
01:07:50.775 : ru:Never My Beloved / Никогда не быть моим возлюбленным
01:11:03.300 : ru:Some Partner I Got / Партнер на примете
01:16:19.575 : ru:Salting Their Future / Засоленное будущее
01:21:30.677 : ru:We Solemnly Swear / Мы торжественно клянемся
01:24:06.332 : ru:Bugsy Strikes / "Багси идет, бежим!"
01:27:19.984 : ru:Noodles Takes The Fall / Конец Багси
01:29:32.867 : ru:Visiting Old Friends / Навещая старых друзей
01:33:47.455 : ru:Advance Payment / Авансовый платеж
01:36:12.933 : ru:Turnover In The Grave / Могильные услады
01:38:21.604 : ru:Hottest Spot In Town / Самое жаркое место в городе
01:44:06.323 : ru:Deborah's Welcome / Встреча Деборы
01:47:50.881 : ru:Insurance Talk / Обсудим страховку
01:53:18.625 : ru:Jewel Robbery / Кража драгоценностей
01:56:31.067 : ru:Kid Stuff / Детский труд
01:58:27.141 : ru:Snowy White, Bloody Red / Снежно-белый, кроваво-красный
02:00:15.249 : ru:Going for a Swim / Едем купаться
02:02:54.950 : ru:Guilt Lies Elsewhere / Вина повсюду
02:05:33.734 : ru:Plague to the Rescue / Горе во спасение
02:11:00.644 : ru:Chief's Bouncing Baby / Здоровый ребенок Шефа
02:18:38.518 : ru:Behind the Masks / За масками
02:26:21.105 : ru:Table by the Sea / Дары моря
02:31:31.082 : ru:Deborah on His Mind / Дебора не выходит из головы
02:33:41.086 : ru:The Drive Home / Поездка домой
02:38:49.061 : ru:The Train Station / Железнодорожная станция
02:40:27.993 : ru:Intermission / Перерыв
02:41:29.680 : ru:Max's Way With Women / Макс и его женщина
02:47:37.088 : ru:Two Hits / Два удара
02:49:39.669 : ru:Stink of the Streets / Запах улиц
02:54:23.286 : ru:Max's Dream / Мечта Макса
02:59:03.733 : ru:Better off than Dead / Лучше отказаться, чем быть убитым
03:03:24.660 : ru:Prohibition Ends / Конец сухого закона
03:08:16.535 : ru:Phone Tip / Телефонная подсказка
03:12:01.551 : ru:Memories of an Actress / Воспоминания об актрисе
03:17:11.736 : ru:Another David / Сын Макса
03:23:48.966 : ru:Bailey's Party / Вечеринка Бэйли
03:25:49.086 : ru:Already a Dead Man / Уже не жилец
03:31:45.693 : ru:How Noodles Sees Things / Мировоззрение Лапши
03:37:44.384 : ru:Gone with the Garbage / Унесенный мусором
03:41:29.526 : ru:World of Dreams / Мир грез
03:44:31.666 : ru:End Credits / Заключительные титры
-

Mediainfo (дополнительные переводы):

Аудио #1
Формат : AC-3
Формат/Информация : Audio Coding 3
Расширение режима : CM (complete main)
Параметр Endianness формата : Big
Продолжительность : 3 ч. 49 м.
Вид битрейта : Постоянный
Битрейт : 448 Кбит/сек
Каналы : 6 каналов
Расположение каналов : Front: L C R, Side: L R, LFE
Частота : 48,0 КГц
Битовая глубина : 16 бит
Метод сжатия : С потерями
Размер потока : 735 Мбайт (100%)
Заголовок : 48 kHz, AC-3, 5.1 ch, 448 kbps - MVO Позитив (с DVD)
Язык : Russian
Аудио #2
Формат : DTS
Формат/Информация : Digital Theater Systems
Продолжительность : 3 ч. 49 м.
Вид битрейта : Постоянный
Битрейт : 1510 Кбит/сек
Каналы : 6 каналов
Расположение каналов : Front: L C R, Side: L R, LFE
Частота : 48,0 КГц
Битовая глубина : 24 бит
Метод сжатия : С потерями
Заголовок : 48 kHz, DTS, 5.1 ch, 1510 kbps - MVO Позитив
Язык : Russian
Аудио #3
Формат : AC-3
Формат/Информация : Audio Coding 3
Расширение режима : CM (complete main)
Параметр Endianness формата : Big
Продолжительность : 3 ч. 49 м.
Вид битрейта : Постоянный
Битрейт : 448 Кбит/сек
Каналы : 6 каналов
Расположение каналов : Front: L C R, Side: L R, LFE
Частота : 48,0 КГц
Битовая глубина : 16 бит
Метод сжатия : С потерями
Размер потока : 735 Мбайт (100%)
Заголовок : 48 kHz, AC-3, 5.1 ch, 448 kbps - MVO Киномания (Карусель)
Язык : Russian
Аудио #4
Формат : DTS
Формат/Информация : Digital Theater Systems
Продолжительность : 3 ч. 49 м.
Вид битрейта : Постоянный
Битрейт : 1510 Кбит/сек
Каналы : 6 каналов
Расположение каналов : Front: L C R, Side: L R, LFE
Частота : 48,0 КГц
Битовая глубина : 24 бит
Метод сжатия : С потерями
Размер потока : 2,42 Гбайт (100%)
Заголовок : 48 kHz, DTS, 5.1 ch, 1510 kbps - DVO Гланц & Королева
Язык : Russian
Аудио #5
Формат : AC-3
Формат/Информация : Audio Coding 3
Расширение режима : CM (complete main)
Параметр Endianness формата : Big
Продолжительность : 3 ч. 49 м.
Вид битрейта : Постоянный
Битрейт : 192 Кбит/сек
Каналы : 2 канала
Расположение каналов : Front: L R
Частота : 48,0 КГц
Битовая глубина : 16 бит
Метод сжатия : С потерями
Размер потока : 315 Мбайт (100%)
Заголовок : 48 kHz, AC-3, 2.0 ch, 192 kbps - VO Борисов
Язык : Russian
Аудио #6
Формат : AC-3
Формат/Информация : Audio Coding 3
Расширение режима : CM (complete main)
Параметр Endianness формата : Big
Продолжительность : 3 ч. 49 м.
Вид битрейта : Постоянный
Битрейт : 384 Кбит/сек
Каналы : 6 каналов
Расположение каналов : Front: L C R, Side: L R, LFE
Частота : 48,0 КГц
Битовая глубина : 16 бит
Метод сжатия : С потерями
Размер потока : 630 Мбайт (100%)
Заголовок : 48 kHz, AC-3, 5.1 ch, 384 kbps - AVO Володарский
Язык : Russian
Аудио #7
Формат : AC-3
Формат/Информация : Audio Coding 3
Расширение режима : CM (complete main)
Параметр Endianness формата : Big
Продолжительность : 3 ч. 49 м.
Вид битрейта : Постоянный
Битрейт : 192 Кбит/сек
Каналы : 2 канала
Расположение каналов : Front: L R
Частота : 48,0 КГц
Битовая глубина : 16 бит
Метод сжатия : С потерями
Размер потока : 315 Мбайт (100%)
Заголовок : 48 kHz, AC-3, 2.0 ch, 192 kbps - AVO Михалев
Язык : Russian
Аудио #8
Формат : DTS
Формат/Информация : Digital Theater Systems
Продолжительность : 3 ч. 49 м.
Вид битрейта : Постоянный
Битрейт : 1510 Кбит/сек
Каналы : 6 каналов
Расположение каналов : Front: L C R, Side: L R, LFE
Частота : 48,0 КГц
Битовая глубина : 24 бит
Метод сжатия : С потерями
Размер потока : 2,42 Гбайт (100%)
Заголовок : 48 kHz, DTS, 5.1 ch, 1510 kbps - AVO Шиндяпин
Язык : Russian
Аудио #9
Формат : AC-3
Формат/Информация : Audio Coding 3
Расширение режима : CM (complete main)
Параметр Endianness формата : Big
Продолжительность : 3 ч. 49 м.
Вид битрейта : Постоянный
Битрейт : 448 Кбит/сек
Каналы : 6 каналов
Расположение каналов : Front: L C R, Side: L R, LFE
Частота : 48,0 КГц
Битовая глубина : 16 бит
Метод сжатия : С потерями
Размер потока : 735 Мбайт (100%)
Заголовок : 48 kHz, AC-3, 5.1 ch, 448 kbps - AVO Живов
Язык : Russian
Аудио #10
Формат : AC-3
Формат/Информация : Audio Coding 3
Расширение режима : CM (complete main)
Параметр Endianness формата : Big
Продолжительность : 3 ч. 49 м.
Вид битрейта : Постоянный
Битрейт : 192 Кбит/сек
Каналы : 2 канала
Расположение каналов : Front: L R
Частота : 48,0 КГц
Битовая глубина : 16 бит
Метод сжатия : С потерями
Размер потока : 315 Мбайт (100%)
Заголовок : 48 kHz, AC-3, 2.0 ch, 192 kbps - AVO Сербин
Язык : Russian
Аудио #11
Формат : AC-3
Формат/Информация : Audio Coding 3
Расширение режима : CM (complete main)
Параметр Endianness формата : Big
Продолжительность : 3 ч. 49 м.
Вид битрейта : Постоянный
Битрейт : 192 Кбит/сек
Каналы : 2 канала
Расположение каналов : Front: L R
Частота : 48,0 КГц
Битовая глубина : 16 бит
Метод сжатия : С потерями
Размер потока : 315 Мбайт (100%)
Заголовок : 48 kHz, AC-3, 2.0 ch, 192 kbps - AVO Горчаков
Язык : Russian
Аудио #12
Формат : AC-3
Формат/Информация : Audio Coding 3
Расширение режима : CM (complete main)
Параметр Endianness формата : Big
Продолжительность : 3 ч. 49 м.
Вид битрейта : Постоянный
Битрейт : 192 Кбит/сек
Каналы : 2 канала
Расположение каналов : Front: L R
Частота : 48,0 КГц
Битовая глубина : 16 бит
Метод сжатия : С потерями
Размер потока : 315 Мбайт (100%)
Заголовок : 48 kHz, AC-3, 2.0 ch, 192 kbps - AVO Гаврилов (ранний)
Язык : Russian
Аудио #13
Формат : AC-3
Формат/Информация : Audio Coding 3
Расширение режима : CM (complete main)
Параметр Endianness формата : Big
Продолжительность : 3 ч. 49 м.
Вид битрейта : Постоянный
Битрейт : 192 Кбит/сек
Каналы : 2 канала
Расположение каналов : Front: L R
Частота : 48,0 КГц
Битовая глубина : 16 бит
Метод сжатия : С потерями
Размер потока : 315 Мбайт (100%)
Заголовок : 48 kHz, AC-3, 2.0 ch, 192 kbps - AVO Гаврилов (поздний)
Язык : Russian
-Скриншоты:

                       


Время раздачи: с 10:00 до 23:00 ежедневно
Вне форума [Профиль] [ЛС]
Показать сообщения:    
Ответить на тему

Текущее время: Сегодня 16:41

Часовой пояс: GMT + 3



Вы не можете начинать темы
Вы не можете отвечать на сообщения
Вы не можете редактировать свои сообщения
Вы не можете удалять свои сообщения
Вы не можете голосовать в опросах
Вы не можете прикреплять файлы к сообщениям
Вы не можете скачивать файлы