Сегодня идет свободное скачивание без начисления Download

Библия / The Bible: In the Beginning... (Джон Хьюстон / John Huston) [1966 г.] (драма) [BDRip] (Dub)

Ответить на тему
 
Автор
Сообщение

nsa1977 ®

Пол:

Стаж: 7 лет 3 месяца

Сообщений: 1554

Откуда: Пенза

Торрент-статистика

Пост 03-Май-2011 18:10

[Цитировать]

Библия / The Bible: In the Beginning...
Год выпуска: 1966
Производство: США, Италия
Жанр: драма
Продолжительность: 02:54:50
Перевод: Профессиональный (полное дублирование)
Субтитры: нет
Оригинальный аудиопоток: Отсутствует
Режиссер: Джон Хьюстон / John Huston-В ролях: Майкл Паркс, Ulla Bergryd, Ричард Харрис, Джон Хьюстон, Стивен Бойд, Джордж К.
Скотт, Ава Гарднер, Питер О’Тул, Зои Саллис, Габриэле Ферцетти..
Описание: Экранизация Великой Книги, библейские истории об Адаме и Еве, Каине и Авеле
и многом другом, известном и не очень известном...-Мировая премьера: 28 сентября 1966
Дата выхода DVD: 26 ноября 2009, «Двадцатый Век Фокс СНГ»-Автор рипа kingsize87. Релиз от
-Качество: BDRip
Формат: AVI
Видео кодек: XviD
Аудио кодек: AC3
Видео: 704x320 (2.20:1), 23.976 fps, XviD build 57 ~1919 kbps avg, 0.35 bit/pixel
Аудио: 48 kHz, AC3 Dolby Digital, 3/2 (L,C,R,l,r) + LFE ch, ~448 kbps-

Награды

Рецензия

Вероятно, лучшая экранизация некоторых глав Ветхого Завета: сотворение Господом мира, грехопадение Адама и Евы в Эдемском саду, убиение Каином своего праведного брата Авеля, Ноев Ковчег и Всемирный потоп, уничтожение Содома и Гомморы, Авраам и Сара и другие эпохальные события человечества переложены Джоном Хьюстоном на экран эмоционально величественно и тактично по отношению к Вечному первоисточнику.
Впервые я «случайно» посмотрел эту сакральную картину в 1998 году, в качественном переводе с итальянского (чувствовалось, что переводчик сверял постоянно речь с экрана с текстами самой Библии). И был поражён убедительным звучанием показанных в фильме историй. Пошёл к чёрту Дарвин с его параноидальными теориями о том, что человек, дескать, не более чем «говорящая обезьяна».
Все люди — и эта точка зрения убедительно отстаивается авторами — Божьи творения, проходящие своей земной жизнью «экзамен» на жизнь вечную (в зависимости от морального выбора, которого, кстати, уже не будет в нашей посмертной участи: будет лишь данность — либо блаженная радость в раю, либо вечные мучения в аду). Третьего по Закону Божию не дано!

Media Info

General
Complete name : D:\Torrent\Bibliya.1966.RUS.BDRip.XviD.AC3.-HQCLUB.avi
Format : AVI
Format/Info : Audio Video Interleave
Format profile : OpenDML
File size : 2.90 GiB
Duration : 2h 54mn
Overall bit rate : 2 374 Kbps
Movie name : Bibliya.1966.RUS.BDRip.XviD.AC3.-HQCLUB
Director : kingsize87 (Blu-ray Disc CEE)
Writing application : VirtualDubMod 1.5.10.2 (build 2542/release)
Copyright : HQCLUB
Comment : 09.03.2011
Video
ID : 0
Format : MPEG-4 Visual
Format profile : Advanced [email protected]
Format settings, BVOP : Yes
Format settings, QPel : No
Format settings, GMC : No warppoints
Format settings, Matrix : Custom
Codec ID : XVID
Codec ID/Hint : XviD
Duration : 2h 54mn
Bit rate : 1 916 Kbps
Width : 704 pixels
Height : 320 pixels
Display aspect ratio : 2.2:1
Frame rate : 23.976 fps
Color space : YUV
Chroma subsampling : 4:2:0
Bit depth : 8 bits
Scan type : Progressive
Bits/(Pixel*Frame) : 0.355
Stream size : 2.34 GiB (81%)
Writing library : XviD 57
Audio
ID : 1
Format : AC-3
Format/Info : Audio Coding 3
Mode extension : CM (complete main)
Codec ID : 2000
Duration : 2h 54mn
Bit rate mode : Constant
Bit rate : 448 Kbps
Channel(s) : 6 channels
Channel positions : Front: L C R, Side: L R, LFE
Sampling rate : 48.0 KHz
Bit depth : 16 bits
Stream size : 560 MiB (19%)
Alignment : Split accross interleaves
Interleave, duration : 42 ms (1.00 video frame)
Interleave, preload duration : 500 ms

Скриншоты

         

_________________


Последний раз редактировалось: nsa1977 (2011-05-04 15:39), всего редактировалось 3 раз(а)
Вне форума [Профиль] [ЛС]
Похожие темы
Форум Тема Автор Торрент Отв. Посл. сообщение
./templates/default/images/folder_dl.gif Медицина и Здоровье Дмитрий Денисов | Профессиональный кофе. Библия бариста (2004) [PDF] Omen
1 | 0

0 | 935

14

2014-11-06 19:09
Omen Последнее
./templates/default/images/folder_dl.gif Компьютерная литература Библиотека профессионала - Чан Уэсли Дж. - Python: создание приложений (3-е издание) [2015, PDF, RUS] Omen
2 | 0

0 | 492

4

2016-03-30 12:00
Omen Последнее
./templates/default/images/folder_dl.gif Фантастика, фэнтези, ужасы, мистика БИБЛИОТЕКА ЗАРУБЕЖНОЙ ФАНТАСТИКИ (книжная серия) [1991 – 1994 / DJVU, EPUB, FB2, PDF / RUS] Omen
0 | 1

0 | 605

1

2016-12-19 01:00
Omen Последнее
./templates/default/images/folder_dl.gif Для детей, родителей и учителей Детгиз, Детская литература | Библиотека приключений и научной фантастики (273 тома) (1936-2004) [FB2, PDF, DJVU, DOC, RTF] XP1971
1 | 0

0 | 7502

9

2017-04-16 19:40
XP1971 Последнее
./templates/default/images/folder_dl.gif Для детей, родителей и учителей Книжная серия | Библиотека мировой литературы для детей [54 книги] (1976-1992) [DJVU] XP1971
1 | 1

0 | 8241

3

2017-07-29 21:16
XP1971 Последнее
Показать сообщения:    
Ответить на тему

Текущее время: Сегодня 19:32

Часовой пояс: GMT + 3



Вы не можете начинать темы
Вы не можете отвечать на сообщения
Вы не можете редактировать свои сообщения
Вы не можете удалять свои сообщения
Вы не можете голосовать в опросах
Вы не можете прикреплять файлы к сообщениям
Вы не можете скачивать файлы