Сегодня идет свободное скачивание без начисления Download

Библия / The Bible: In the Beginning... (Джон Хьюстон / John Huston) [1966 г.] (драма) [BDRip] (Dub)

Ответить на тему
 
Автор
Сообщение

nsa1977 ®

Пол:

Стаж: 6 лет 5 месяцев

Сообщений: 1682

Откуда: Пенза

Торрент-статистика

Пост 03-Май-2011 18:10

[Цитировать]

Библия / The Bible: In the Beginning...
Год выпуска: 1966
Производство: США, Италия
Жанр: драма
Продолжительность: 02:54:50
Перевод: Профессиональный (полное дублирование)
Субтитры: нет
Оригинальный аудиопоток: Отсутствует
Режиссер: Джон Хьюстон / John Huston-В ролях: Майкл Паркс, Ulla Bergryd, Ричард Харрис, Джон Хьюстон, Стивен Бойд, Джордж К.
Скотт, Ава Гарднер, Питер О’Тул, Зои Саллис, Габриэле Ферцетти..
Описание: Экранизация Великой Книги, библейские истории об Адаме и Еве, Каине и Авеле
и многом другом, известном и не очень известном...-Мировая премьера: 28 сентября 1966
Дата выхода DVD: 26 ноября 2009, «Двадцатый Век Фокс СНГ»-Автор рипа kingsize87. Релиз от
-Качество: BDRip
Формат: AVI
Видео кодек: XviD
Аудио кодек: AC3
Видео: 704x320 (2.20:1), 23.976 fps, XviD build 57 ~1919 kbps avg, 0.35 bit/pixel
Аудио: 48 kHz, AC3 Dolby Digital, 3/2 (L,C,R,l,r) + LFE ch, ~448 kbps-

Награды

Рецензия

Вероятно, лучшая экранизация некоторых глав Ветхого Завета: сотворение Господом мира, грехопадение Адама и Евы в Эдемском саду, убиение Каином своего праведного брата Авеля, Ноев Ковчег и Всемирный потоп, уничтожение Содома и Гомморы, Авраам и Сара и другие эпохальные события человечества переложены Джоном Хьюстоном на экран эмоционально величественно и тактично по отношению к Вечному первоисточнику.
Впервые я «случайно» посмотрел эту сакральную картину в 1998 году, в качественном переводе с итальянского (чувствовалось, что переводчик сверял постоянно речь с экрана с текстами самой Библии). И был поражён убедительным звучанием показанных в фильме историй. Пошёл к чёрту Дарвин с его параноидальными теориями о том, что человек, дескать, не более чем «говорящая обезьяна».
Все люди — и эта точка зрения убедительно отстаивается авторами — Божьи творения, проходящие своей земной жизнью «экзамен» на жизнь вечную (в зависимости от морального выбора, которого, кстати, уже не будет в нашей посмертной участи: будет лишь данность — либо блаженная радость в раю, либо вечные мучения в аду). Третьего по Закону Божию не дано!

Media Info

General
Complete name : D:\Torrent\Bibliya.1966.RUS.BDRip.XviD.AC3.-HQCLUB.avi
Format : AVI
Format/Info : Audio Video Interleave
Format profile : OpenDML
File size : 2.90 GiB
Duration : 2h 54mn
Overall bit rate : 2 374 Kbps
Movie name : Bibliya.1966.RUS.BDRip.XviD.AC3.-HQCLUB
Director : kingsize87 (Blu-ray Disc CEE)
Writing application : VirtualDubMod 1.5.10.2 (build 2542/release)
Copyright : HQCLUB
Comment : 09.03.2011
Video
ID : 0
Format : MPEG-4 Visual
Format profile : Advanced [email protected]
Format settings, BVOP : Yes
Format settings, QPel : No
Format settings, GMC : No warppoints
Format settings, Matrix : Custom
Codec ID : XVID
Codec ID/Hint : XviD
Duration : 2h 54mn
Bit rate : 1 916 Kbps
Width : 704 pixels
Height : 320 pixels
Display aspect ratio : 2.2:1
Frame rate : 23.976 fps
Color space : YUV
Chroma subsampling : 4:2:0
Bit depth : 8 bits
Scan type : Progressive
Bits/(Pixel*Frame) : 0.355
Stream size : 2.34 GiB (81%)
Writing library : XviD 57
Audio
ID : 1
Format : AC-3
Format/Info : Audio Coding 3
Mode extension : CM (complete main)
Codec ID : 2000
Duration : 2h 54mn
Bit rate mode : Constant
Bit rate : 448 Kbps
Channel(s) : 6 channels
Channel positions : Front: L C R, Side: L R, LFE
Sampling rate : 48.0 KHz
Bit depth : 16 bits
Stream size : 560 MiB (19%)
Alignment : Split accross interleaves
Interleave, duration : 42 ms (1.00 video frame)
Interleave, preload duration : 500 ms

Скриншоты

         

_________________


Последний раз редактировалось: nsa1977 (2011-05-04 15:39), всего редактировалось 3 раз(а)
Вне форума [Профиль] [ЛС]
Похожие темы
Форум Тема Автор Торрент Отв. Посл. сообщение
./templates/default/images/folder_dl.gif Разножанровые коллекции книг и библиотеки Библиотека современной фантастики | Полный комплект | Издательство Молодая гвардия |[FB2] Omen
0 | 1

0 | 1484

8

2011-07-08 17:53
Omen Последнее
./templates/default/images/folder_dl.gif 3D модели и сцены Photostoсks Библиотека 3D и 2D моделей элементов инженерных сетей AutoCAD Omen
1 | 0

0 | 1618

11

2012-12-07 23:43
Omen Последнее
./templates/default/images/folder_dl.gif Разное PRO100 5.20 + Профессиональная Библиотека 1.2 [Русский] UndegraundMen
1 | 1

0 | 1008

9

2013-03-04 16:15
UndegraundMen Последнее
./templates/default/images/folder_dl.gif Разножанровые коллекции книг и библиотеки Книжная серия | Библиотека приключений и научной фантастики (96 книг) [1936-2004] [DJVU, PDF] sashau
0 | 1

0 | 1044

5

2013-05-10 09:42
sashau Последнее
./templates/default/images/folder_sticky.gif Разножанровые коллекции книг и библиотеки Библиотека Либрусек (lib.rus.ec) по состоянию на 30 августа 2016 + LibRusLib. 538320 книги. [FB2] (Неофициальная версия) Omen
2 | 0

0 | 3616

5

2013-06-07 09:56
Omen Последнее
./templates/default/images/folder_dl.gif Техническая и научно-популярная литература Библиотека КОЛХОЗ [DVD №5 | 1089 книг] (2006) Omen
2 | 0

0 | 301

7

2015-01-07 15:01
Omen Последнее
./templates/default/images/folder_dl.gif Техническая и научно-популярная литература Библиотека КОЛХОЗ [DVD №6 | 1284 книги] (2006) Omen
2 | 0

0 | 401

8

2015-01-07 15:01
Omen Последнее
./templates/default/images/folder_dl.gif Обучающее видео [Тимур Батыршинов] Онлайн библиотека на Spring [2015, RUS] Omen
1 | 0

0 | 440

20

2015-08-30 03:00
Omen Последнее
./templates/default/images/folder_dl.gif Видеотренинги JavaBegin | Онлайн библиотека на Spring (2014-2015) PCRec [H.264] Omen
1 | 0

0 | 42

18

2015-10-14 18:57
Omen Последнее
./templates/default/images/folder_dl.gif Философия, Религия, Эзотерика, Публицистика Российское Библейское Общество (изд.) | Библия. Современный русский перевод (2011) [PDF, DJVU, FB2, DOC, RTF] moralis
1 | 0

0 | 260

2

2016-04-17 10:48
moralis Последнее
Показать сообщения:    
Ответить на тему

Текущее время: Сегодня 17:19

Часовой пояс: GMT + 3



Вы не можете начинать темы
Вы не можете отвечать на сообщения
Вы не можете редактировать свои сообщения
Вы не можете удалять свои сообщения
Вы не можете голосовать в опросах
Вы не можете прикреплять файлы к сообщениям
Вы не можете скачивать файлы