Сегодня идет свободное скачивание без начисления Download

Наследник / L\'Heritier (1973) [H.264] DVDRip

Ответить на тему
 
Автор
Сообщение

Omen ®

Стаж: 4 года 1 месяц

Сообщений: 194382

Торрент-статистика

Пост 20-Янв-2013 14:08

[Цитировать]

-Наследник / L'Heritier (1973) [H.264] DVDRip- Русское название: Наследник
Оригинальное название: L'Heritier
Год выпуска: 1973
Жанр: Триллер, Драма, Криминал. Детектив
Страна: Франция, Италия
Производство: Cinetel, Euro International Film (EIA), President Films
Описание фильма:
Барт Кордел, слывущий в свете плейбоем и интеллигентом, после загадочной смерти отца становится владельцем крупной медиаимперии. Он начинает наводить порядок и одновременно ведет расследование, так как уверен, что его отец был убит. Но далеко не всем выгодно, чтобы добытые им сведения были преданы огласке.
Режиссер: Филипп Лабро
Сценарий: Винченцо Лабелла, Филипп Лабро, Жак Ланзманн
Продюсер: Жак-Эрик Стросс
Актеры: Жан-Поль Бельмондо, Карла Гравина, Жан Рошфор, Шарль Деннер, Жан Десайи, Жан Мартен, Морис Гаррель, Пьер Грассе, Морин Кервин, Франсуа Шометт
Продолжительность: 01:46:45
Перевод: Многоголосый закадровый
Субтитры: Отсутствуют

Дата мировой премьеры: 22 марта 1973
Видеокодек: MPEG-4 AVC/H.264
Битрейт видео: ~2099 Кбит/сек
Размер кадра: 720x432
Качество видео: DVDRip
Аудиокодек: AC3 2.0
Битрейт аудио: 160 kbps

MediaInfo:

Общее
Уникальный идентификатор : 199375709400832743201237623627593843555 (0x95FE5D698D67444EBFD15014B8DC8363)
Полное имя : D:\Downloads\Наследник.mkv
Формат : Matroska
Версия формата : Version 2
Размер файла : 1,68 Гбайт
Продолжительность : 1 ч. 46 м.
Общий поток : 2260 Кбит/сек
Дата кодирования : UTC 2013-01-18 23:07:24
Программа кодирования : mkvmerge v5.7.0 ('The Whirlwind') built on Jul 29 2012 15:12:35
Библиотека кодирования : libebml v1.2.3 + libmatroska v1.3.0
Видео
Идентификатор : 1
Формат : AVC
Формат/Информация : Advanced Video Codec
Профиль формата : [url=mailto:[email protected]][email protected][/url]
Параметр CABAC формата : Да
Параметр ReFrames формата : 8 кадров
Режим смешивания : Header stripping
Идентификатор кодека : V_MPEG4/ISO/AVC
Продолжительность : 1 ч. 46 м.
Битрейт : 2099 Кбит/сек
Ширина : 720 пикселей
Высота : 432 пикселя
Соотношение сторон : 1,667
Режим частоты кадров : Постоянный
Частота кадров : 25,000 кадров/сек
Цветовое пространство : YUV
Субдискретизация насыщенности : 4:2:0
Битовая глубина : 8 бит
Тип развёртки : Прогрессивная
Бит/(Пиксели*Кадры) : 0.270
Размер потока : 1,53 Гбайт (91%)
Заголовок : L'Heritier
Библиотека кодирования : x264 core 129 r2230 1cffe9f
Настройки программы : cabac=1 / ref=8 / deblock=1:-1:-1 / analyse=0x3:0x133 / me=umh / subme=9 / psy=1 / psy_rd=1.00:0.15 / mixed_ref=1 / me_range=16 / chroma_me=1 / trellis=2 / 8x8dct=1 / cqm=0 / deadzone=21,11 / fast_pskip=1 / chroma_qp_offset=-3 / threads=3 / lookahead_threads=1 / sliced_threads=0 / nr=0 / decimate=1 / interlaced=0 / bluray_compat=0 / constrained_intra=0 / bframes=3 / b_pyramid=2 / b_adapt=2 / b_bias=0 / direct=3 / weightb=1 / open_gop=0 / weightp=2 / keyint=250 / keyint_min=25 / scenecut=40 / intra_refresh=0 / rc_lookahead=60 / rc=2pass / mbtree=1 / bitrate=2099 / ratetol=1.0 / qcomp=0.60 / qpmin=0 / qpmax=69 / qpstep=4 / cplxblur=20.0 / qblur=0.5 / ip_ratio=1.40 / aq=1:1.00
Язык : French
Default : Да
Forced : Нет
Аудио
Идентификатор : 2
Формат : AC-3
Формат/Информация : Audio Coding 3
Расширение режима : CM (complete main)
Параметр Endianness формата : Big
Режим смешивания : Header stripping
Идентификатор кодека : A_AC3
Продолжительность : 1 ч. 46 м.
Вид битрейта : Постоянный
Битрейт : 160 Кбит/сек
Каналы : 2 канала
Расположение каналов : Front: L R
Частота : 48,0 КГц
Битовая глубина : 16 бит
Метод сжатия : С потерями
Размер потока : 122 Мбайт (7%)
Заголовок : Многоголосый закадровый
Язык : Russian
Default : Да
Forced : Нет
Скриншоты:                    Время раздачи: с 12:00 до 24:00 по Москве (выходные круглосуточно), до 10 скачавших
Вне форума [Профиль] [ЛС]
Похожие темы
Форум Тема Автор Торрент Отв. Посл. сообщение
./templates/default/images/folder_dl.gif Зарубежное кино Трон: Наследие / TRON: Legacy (2010) BDRip 1080p Varius
1 | 0

0 | 831

7

2011-03-11 05:18
Varius Последнее
Показать сообщения:    
Ответить на тему

Текущее время: Сегодня 22:17

Часовой пояс: GMT + 3



Вы не можете начинать темы
Вы не можете отвечать на сообщения
Вы не можете редактировать свои сообщения
Вы не можете удалять свои сообщения
Вы не можете голосовать в опросах
Вы не можете прикреплять файлы к сообщениям
Вы не можете скачивать файлы