Сегодня идет свободное скачивание без начисления Download

Странные супруги / Strange Bedfellows (1965) DVDRip

Ответить на тему
 
Автор
Сообщение

Omen ®

Стаж: 4 года 5 месяцев

Сообщений: 190802

Торрент-статистика

Пост 20-Янв-2013 17:20

[Цитировать]

-Странные супруги / Strange Bedfellows (1965) DVDRip- Русское название: Странные супруги
Оригинальное название: Strange Bedfellows
Год выпуска: 1965
Жанр: Комедия
Описание фильма:Действие развивается в Лондоне, симпатичный американец знакомится с художницей итальянкой Тони, моментально влюбившись друг в друга пара по быстрому оформляет отношения но буквально на следующее утро оказывается что они не совпадают ни по одному вопросу. Следует бурный разрыв в стиле итальянского темперамента героини. Следующая встреча происходит спустя семь лет, когда герои решают наконец оформить официальный развод, однако ситуация немного изменилась и герою для продвижения по службе необходимо состоять в браке, вот тут он и начинает использовать и применять на своей страстной супруге фирменные уловки и хитрости.
Режиссер: Мелвин Фрэнк
Актеры: Рок Хадсон, Джина Лоллобриджида, Гиг Янг, Эдвард Джадд, Ховард Ст. Джон, Дейв Кинг, Пегги Ри, Джозеф Сирола, Нэнси Калп, Люси Ландау, Бернард Фокс, Эдит Этуотер
Продолжительность: 01:38:52
Перевод: Одноголосный закадровый

Видеокодек: XviD
Битрейт видео: 2086 Кбит/сек
Размер кадра: 720х460
Качество видео: DVDRip
Аудиокодек: MP3 2 канала
Битрейт аудио: 128 Кбит/сек

Media info:

Формат : AVI
Формат/Информация : Audio Video Interleave
Профиль формата : OpenDML
Размер файла : 1,54 Гбайт
Продолжительность : 1 ч. 38 м.
Общий поток : 2228 Кбит/сек
Программа кодирования : MEncoder SVN-r30881(20100311-gcc4.3.3)
Библиотека кодирования : MPlayer
Видео
Идентификатор : 0
Формат : MPEG-4 Visual
Профиль формата : Advanced [email protected]
Параметр BVOP формата : 2
Параметр QPel формата : Нет
Параметр GMC формата : Без точки перехода
Параметр матрицы формата : Default (H.263)
Идентификатор кодека : XVID
Идентификатор кодека/Подсказка : XviD
Продолжительность : 1 ч. 38 м.
Битрейт : 2086 Кбит/сек
Ширина : 720 пикселей
Высота : 460 пикселей
Соотношение сторон : 1,85:1
Соотношение сторон в оригинале : 1,85:1
Частота кадров : 23,976 кадра/сек
Цветовое пространство : YUV
Субдискретизация насыщенности : 4:2:0
Битовая глубина : 8 бит
Тип развёртки : Прогрессивная
Метод сжатия : С потерями
Бит/(Пиксели*Кадры) : 0.263
Размер потока : 1,44 Гбайт (94%)
Библиотека кодирования : XviD 1.2.1 (UTC 2008-12-04)
Аудио
Идентификатор : 1
Формат : MPEG Audio
Версия формата : Version 1
Профиль формата : Layer 3
Режим : Joint stereo
Расширение режима : MS Stereo
Идентификатор кодека : 55
Идентификатор кодека/Подсказка : MP3
Продолжительность : 1 ч. 38 м.
Вид битрейта : Постоянный
Битрейт : 128 Кбит/сек
Каналы : 2 канала
Частота : 44,1 КГц
Метод сжатия : С потерями
Задержка видео : 42 мс.
Размер потока : 90,5 Мбайт (6%)
Выравнивание : Соединение по промежуткам
Продолжительность промежутка : 26 мс. (0,63 видеокадр)
Время предзагрузки промежутка : 522 мс.
Скриншоты:        Время раздачи: с 8:00 до 24:00
Вне форума [Профиль] [ЛС]
Похожие темы
Форум Тема Автор Торрент Отв. Посл. сообщение
./templates/default/images/folder_dl.gif Обучающее видео Ягодкин Николай | Техника запоминания 100 иностранных слов в час [2012] PCRec UndegraundMen
1 | 0

10 | 7027

127

2015-10-20 15:48
Геннадич Последнее
./templates/default/images/folder_dl.gif Обучающее видео [Advanced Training] Курс Cisco TSHOOT 2.0 - Поиск и устранение неисправностей в сетях Cisco (Troubleshooting and Maintaining Cisco IP Networks) [2014, RUS] Omen
3 | 0

0 | 1776

223

2015-05-16 12:00
Omen Последнее
./templates/default/images/folder_dl.gif Обучающее видео Бизнес через одностраничные сайты, схема работы, нюансы, бизнес в интернете. [2015, интернет-бизнес, WEBRip, RUS] (Видеоурок) Omen
2 | 0

0 | 250

1

2015-08-20 21:00
Omen Последнее
./templates/default/images/folder_dl.gif Обучающее видео Критические ошибки при выборе ниши для интернет магазина или одностраничника [2015, интернет-бизнес, WEBRip, RUS] (Видеоурок) Omen
1 | 0

0 | 254

0

2015-08-24 18:00
Omen Последнее
./templates/default/images/folder_dl.gif Наше кино Страна ОЗ (Василий Сигарев) [2015, Россия, комедия, WEB-DL 1080p] Original Rus Omen
1 | 0

0 | 307

6

2016-01-27 21:35
Omen Последнее
./templates/default/images/folder_dl.gif Философия, Религия, Эзотерика, Публицистика Дугин А.Г. - Ноомахия: войны ума. Логос Европы: средиземноморская цивилизация во времени и пространстве. [2014, DjVu, RUS] Omen
1 | 0

0 | 132

0

2016-09-19 01:00
Omen Последнее
./templates/default/images/folder_dl.gif Обучающее видео Николай Ягодкин | Техника запоминания 100 иностранных слов в час (2013) DVDRip [H.264] Omen
1 | 0

0 | 1639

12

2017-01-14 01:00
Omen Последнее
Показать сообщения:    
Ответить на тему

Текущее время: Сегодня 03:05

Часовой пояс: GMT + 3



Вы не можете начинать темы
Вы не можете отвечать на сообщения
Вы не можете редактировать свои сообщения
Вы не можете удалять свои сообщения
Вы не можете голосовать в опросах
Вы не можете прикреплять файлы к сообщениям
Вы не можете скачивать файлы