Сегодня идет свободное скачивание без начисления Download

Легко любить / Easy to Love (1953) DVDRip

Ответить на тему
 
Автор
Сообщение

Omen ®

Стаж: 4 года 1 месяц

Сообщений: 194359

Торрент-статистика

Пост 20-Янв-2013 18:56

[Цитировать]

-Легко любить / Easy to Love (1953) DVDRip- Русское название: Легко любить
Оригинальное название: Easy to Love
Год выпуска: 1953
Жанр: Мелодрама, Комедия, Мюзикл
Описание фильма:
Рэй Ллойд — это продюсер и рекламный агент одного из самых престижных водных аттракционов во Флориде. Он использует девочек в бикини для съемок в различных видах рекламы, от зубной пасты до холодильников и телевизоров. Его фавориткой является Джули Холлертон, которая неустанно работает на него уже в течение восьми лет.
Рэй «старый» холостяк и никак не хочет признаться в своих давно возникших чувствах к девушке даже себе. И вот однажды, после очередного воднолыжного шоу, Джули сообщает работодателю, что скоро собирается выйти замуж за знакомого пловца. Рэй решает пригласить ее в Нью-Йорк для съемок в модном журнале, чтобы попытаться отговорить ее от свадьбы.
Но здесь, в столице американского шоу-бизнеса, девушке предстоит встретить певца Барри Гордона, которому сразу приглянется красотка из Флориды. А это заставит сильно понервничать Рэя…
Режиссер: Чарльз Уолтерс / Charles Walters
Актеры: Эстер Уильямс, Ван Джонсон, Тони Мартин, Джон Бромфилд, Эдна Скиннер, Кинг Донован, Пол Брайар, Кэррол Бейкер, Эд Оливер, Питер Адамс
Продолжительность: 1:35:59
Перевод: Многоголосый закадровый

Дата мировой премьеры: 26.11.1953
Видеокодек: Xvid
Битрейт видео: ~1974 kb/s
Размер кадра: 640 х 480
Качество видео: DVDRip
Аудиокодек: AC3
Битрейт аудио: 192 kb/s cbr 2 канала

MediaInfo

Общее
Полное имя : Легко любить 1953.avi
Формат : AVI
Формат/Информация : Audio Video Interleave
Размер файла : 1,46 Гбайт
Продолжительность : 1 ч. 35 м.
Общий поток : 2176 Кбит/сек
Режиссёр : bm11
Программа кодирования : VirtualDubMod 1.5.10.2 (build 2540/release)
Видео
Идентификатор : 0
Формат : MPEG-4 Visual
Профиль формата : Advanced [email protected]
Параметр BVOP формата : 2
Параметр QPel формата : Нет
Параметр GMC формата : Без точки перехода
Параметр матрицы формата : Выборочная
Идентификатор кодека : XVID
Идентификатор кодека/Подсказка : XviD
Продолжительность : 1 ч. 35 м.
Битрейт : 1974 Кбит/сек
Ширина : 640 пикселей
Высота : 480 пикселей
Соотношение сторон : 4:3
Частота кадров : 23,976 кадра/сек
Цветовое пространство : YUV
Субдискретизация насыщенности : 4:2:0
Битовая глубина : 8 бит
Тип развёртки : Прогрессивная
Метод сжатия : С потерями
Бит/(Пиксели*Кадры) : 0.268
Размер потока : 1,32 Гбайт (91%)
Библиотека кодирования : XviD 65
Аудио
Идентификатор : 1
Формат : AC-3
Формат/Информация : Audio Coding 3
Расширение режима : CM (complete main)
Параметр Endianness формата : Big
Идентификатор кодека : 2000
Продолжительность : 1 ч. 35 м.
Вид битрейта : Постоянный
Битрейт : 192 Кбит/сек
Каналы : 2 канала
Расположение каналов : Front: L R
Частота : 48,0 КГц
Битовая глубина : 16 бит
Метод сжатия : С потерями
Задержка видео : 16 мс.
Размер потока : 132 Мбайт (9%)
Выравнивание : Разделение по промежуткам
Продолжительность промежутка : 42 мс. (1,00 видеокадр)
Время предзагрузки промежутка : 500 мс.
Скриншоты:

Время раздачи: С 9:00 до 22:00
Вне форума [Профиль] [ЛС]
Похожие темы
Форум Тема Автор Торрент Отв. Посл. сообщение
./templates/default/images/folder_dl.gif Разное Станислав Белковский | Апология Владимира Путина. Легко ли быть царем [2013] [PDF] UndegraundMen
1 | 0

0 | 536

11

2013-08-16 17:41
UndegraundMen Последнее
./templates/default/images/folder_dl.gif Обучающее видео Устройство легкового автомобиля + Автокондиционеры (Андрей Татауров, Алексей Пахомов) [2013 CamRip, PCRec] Aikivas
2 | 0

0 | 1068

64

2015-04-01 22:20
Aikivas Последнее
Показать сообщения:    
Ответить на тему

Текущее время: Сегодня 14:51

Часовой пояс: GMT + 3



Вы не можете начинать темы
Вы не можете отвечать на сообщения
Вы не можете редактировать свои сообщения
Вы не можете удалять свои сообщения
Вы не можете голосовать в опросах
Вы не можете прикреплять файлы к сообщениям
Вы не можете скачивать файлы