Сегодня идет свободное скачивание без начисления Download

Игры патриотов / Patriot Games (Филлип Нойс) [1992 г., боевик, триллер, драма, криминал, BDRip1080p]

Ответить на тему
 
Автор
Сообщение

Delia ®

Пол:

Стаж: 6 лет 7 месяцев

Сообщений: 1930

Торрент-статистика

Пост 04-Май-2011 01:26

[Цитировать]

Игры патриотовPatriot Games Год выпуска: 1992
Страна: США
Жанр: боевик, триллер, драма, криминал
Продолжительность: 01:56:44
Перевод: Профессиональный (многоголосый, закадровый)
Режиссер: Филлип Нойс
Продюссер: Чарльз Х. Магвайр, Мейс Нойфилд, Роберт Реме
Сценарий: Том Клэнси, В. Питер Айлифф, Дональд Стюарт
Бюджет: $45 000 000
Премьера в мире: 5 июня 1992
В ролях: Харрисон Форд, Шон Бин, Энн Арчер, Патрик Бергин, Тора Бёрч, Джеймс Фокс, Сэмюэл Л. Джексон, Полли Уокер, Дж. Э. Фримен, Джеймс Эрл Джонс
Описание: Бывший сотрудник ЦРУ, а ныне профессор военно-морской академии США Джек Райан, находясь в Лондоне с докладом, случайно становится свидетелем террористического акта Ирландской республиканской армии против королевской семьи. Райан предотвращает трагедию, но ирландские террористы грозят отомстить. Опасная угроза нависает над Райаном, его женой и дочерью...
Качество: BDRip1080p
Формат: MKV
Видео кодек: H.264
Аудио кодек: AC3
Видео: English, 4592 Кбит/сек, 1920*832 (2,35:1), в 23,976 кадр/сек, AVC ([email protected])
Аудио: Russian, 448 Кбит/сек, 48,0 КГц, 16 бит, 6 каналов, AC-3
Аудио:English, 320 Кбит/сек, 48,0 КГц, 16 бит, 6 каналов, AC-3
Субтитры:Russian, Ukrainian,English - VobSub

MediaInfo:

Общее
Уникальный идентификатор : 254351774224234725558353458994910072819 (0xBF5A5EADBEDFE0359601975F4B600FF3)
Полное имя : E:\торрент\Patriot Games (1992)BDRip 1080p.mkv
Формат : Matroska
Размер файла : 4,38 Гбайт
Продолжительность : 1 ч. 56 м.
Общий поток : 5374 Кбит/сек
Дата кодирования : UTC 2011-05-03 21:28:51
Программа кодирования : mkvmerge v4.7.0 ('Just Like You Imagined') built on Apr 21 2011 01:13:14
Библиотека кодирования : libebml v1.2.0 + libmatroska v1.1.0
Видео
Идентификатор : 1
Формат : AVC
Формат/Информация : Advanced Video Codec
Профиль формата : [email protected]
Параметр CABAC формата : Да
Параметр ReFrames формата : 8 кадров
Идентификатор кодека : V_MPEG4/ISO/AVC
Продолжительность : 1 ч. 56 м.
Битрейт : 4592 Кбит/сек
Ширина : 1920 пикс.
Высота : 832 пикс.
Соотношение сторон : 2,35:1
Частота кадров : 23,976 кадр/сек
Цветовое пространство : YUV
Подвыборка цветности : 4:2:0
Битовая глубина : 8 бит
Тип развёртки : Прогрессивная
Бит/(Пиксели*Кадры) : 0.120
Размер потока : 3,67 Гбайт (84%)
Библиотека кодирования : x264 core 114 r1924 08d04a4
Настройки программы : cabac=1 / ref=8 / deblock=1:-2:-2 / analyse=0x3:0x133 / me=umh / subme=7 / psy=1 / psy_rd=1.00:0.15 / mixed_ref=1 / me_range=32 / chroma_me=1 / trellis=2 / 8x8dct=1 / cqm=0 / deadzone=21,11 / fast_pskip=0 / chroma_qp_offset=-3 / threads=6 / sliced_threads=0 / nr=0 / decimate=1 / interlaced=0 / constrained_intra=0 / bframes=4 / b_pyramid=2 / b_adapt=1 / b_bias=0 / direct=1 / weightb=1 / open_gop=0 / weightp=2 / keyint=250 / keyint_min=24 / scenecut=40 / intra_refresh=0 / rc_lookahead=50 / rc=2pass / mbtree=1 / bitrate=4592 / ratetol=1.0 / qcomp=0.60 / qpmin=5 / qpmax=51 / qpstep=4 / cplxblur=20.0 / qblur=0.5 / ip_ratio=1.40 / aq=1:1.00
Язык : English
Аудио #1
Идентификатор : 2
Формат : AC-3
Формат/Информация : Audio Coding 3
Расширение режима : CM (complete main)
Идентификатор кодека : A_AC3
Продолжительность : 1 ч. 56 м.
Вид битрейта : Постоянный
Битрейт : 448 Кбит/сек
Каналы : 6 каналов
Расположение каналов : Front: L C R, Side: L R, LFE
Частота : 48,0 КГц
Битовая глубина : 16 бит
Метод сжатия : С потерями
Размер потока : 374 Мбайт (8%)
Язык : Russian
Аудио #2
Идентификатор : 3
Формат : AC-3
Формат/Информация : Audio Coding 3
Расширение режима : CM (complete main)
Идентификатор кодека : A_AC3
Продолжительность : 1 ч. 56 м.
Вид битрейта : Постоянный
Битрейт : 320 Кбит/сек
Каналы : 6 каналов
Расположение каналов : Front: L C R, Side: L R, LFE
Частота : 48,0 КГц
Битовая глубина : 16 бит
Метод сжатия : С потерями
Размер потока : 267 Мбайт (6%)
Язык : English
Текст #1
Идентификатор : 4
Формат : VobSub
Режим смешивания : zlib
Идентификатор кодека : S_VOBSUB
Идентификатор кодека/Информация : The same subtitle format used on DVDs
Язык : Russian
Текст #2
Идентификатор : 5
Формат : VobSub
Режим смешивания : zlib
Идентификатор кодека : S_VOBSUB
Идентификатор кодека/Информация : The same subtitle format used on DVDs
Язык : Ukrainian
Текст #3
Идентификатор : 6
Формат : VobSub
Режим смешивания : zlib
Идентификатор кодека : S_VOBSUB
Идентификатор кодека/Информация : The same subtitle format used on DVDs
Язык : English
Меню
00:00:00.000 : en:00:00:00.000
00:02:36.448 : en:00:02:36.448
00:05:47.722 : en:00:05:47.722
00:11:47.040 : en:00:11:47.040
00:13:28.558 : en:00:13:28.558
00:19:57.196 : en:00:19:57.196
00:24:59.873 : en:00:24:59.873
00:27:54.298 : en:00:27:54.298
00:33:56.493 : en:00:33:56.493
00:38:00.737 : en:00:38:00.737
00:40:04.277 : en:00:40:04.277
00:51:17.324 : en:00:51:17.324
00:57:09.343 : en:00:57:09.343
01:04:10.096 : en:01:04:10.096
01:10:52.081 : en:01:10:52.081
01:15:46.834 : en:01:15:46.834
01:19:18.128 : en:01:19:18.128
01:27:10.434 : en:01:27:10.434
01:31:42.664 : en:01:31:42.664
01:44:04.905 : en:01:44:04.905
01:51:14.501 : en:01:51:14.501
01:52:45.175 : en:01:52:45.175

Скриншоты

       

_________________
Человек – это канат, натянутый между животным и сверхчеловеком, – канат над пропастью.
В человеке ценно то, что он мост, а не цель. Фридрих Ницше


Последний раз редактировалось: Delia (2011-08-26 18:07), всего редактировалось 4 раз(а)
Вне форума [Профиль] [ЛС]
Показать сообщения:    
Ответить на тему

Текущее время: Сегодня 20:24

Часовой пояс: GMT + 3



Вы не можете начинать темы
Вы не можете отвечать на сообщения
Вы не можете редактировать свои сообщения
Вы не можете удалять свои сообщения
Вы не можете голосовать в опросах
Вы не можете прикреплять файлы к сообщениям
Вы не можете скачивать файлы