Сегодня идет свободное скачивание без начисления Download

Санта Клаус / The Santa Clause (Джон Пасквин / John Pasquin) [1994, США, фэнтези, драма, комедия, семейный, BDRip 720p] MVO + Original + subs (Rus, Eng)

Ответить на тему
 
Автор
Сообщение

Omen ®

Стаж: 4 года 1 месяц

Сообщений: 194390

Торрент-статистика

Пост 21-Янв-2013 13:04

[Цитировать]

Санта Клаус / The Santa Clause- Год выпуска: 1994
Страна: США
Жанр: фэнтези, драма, комедия, семейный
Продолжительность: 01:37:08
Перевод: Профессиональный (многоголосый, закадровый)
Cубтитры: Английские, Русские-Режиссер: Джон Пасквин / John Pasquin
В ролях: Тим Аллен, Джадж Райнхолд, Венди Крюсон, Эрик Ллойд, Дэвид Крамхолц, Ларри Бранденбург, Мэри Гросс, Paige Tamada, Питер Бойл, Джудит Скотт
Описание: В рождественскую ночь продавец игрушек Скотт Кэлвин случайно сталкивает со своей крыши странного старичка. К его невероятному удивлению, там же он обнаруживает припаркованного северного оленя.
Пока незнакомец беспомощно барахтается в сугробе, любопытный Скотт вскакивает в седло — и оказывается на Северном Полюсе, где главный эльф убеждает его занять место Санта Клауса, который в данный момент лежит возле дома Кэлвина и не может выполнять свои обязанности.
Он соглашается, но одно дело — напялить на себя костюм и плясать с детишками, и совсем другое — быть настоящим Сантой, когда у тебя на самом деле растет борода, пузо, и на глазах седеют волосы. Такого веселого Рождества у него еще не было…-TayTO!
Релиз: by Vitaha94
Формат: MKV
Видео: 1280x694 at 23.976 fps, [email protected], 2pass, ~10500 kbps avg
Аудио #1: Russian: 48 kHz, AC3, 2/0 (L,R) ch, ~320 kbps avg |Многоголосый закадровый, Blu-ray|
Аудио #2: English: 48 kHz, DTS, 3/2 (L,C,R,l,r) + LFE ch, ~1536 kbps avg
Семпл-

Source~Encode





-

MInfo

Формат : Matroska
Версия формата : Version 2
Размер файла : 8,55 Гбайт
Продолжительность : 1 ч. 37 м.
Общий поток : 12,6 Мбит/сек
Дата кодирования : UTC 2013-01-17 19:17:41
Программа кодирования : mkvmerge v4.2.0 ('No Talking') сборка от Jul 28 2010 18:38:23
Библиотека кодирования : libebml v1.0.0 + libmatroska v1.0.0
Видео
Идентификатор : 1
Формат : AVC
Формат/Информация : Advanced Video Codec
Профиль формата : [email protected]
Параметр CABAC формата : Да
Параметр ReFrames формата : 9 кадров
Идентификатор кодека : V_MPEG4/ISO/AVC
Продолжительность : 1 ч. 37 м.
Битрейт : 10,5 Мбит/сек
Ширина : 1280 пикселей
Высота : 694 пикселя
Соотношение сторон : 1,85:1
Режим частоты кадров : Постоянный
Частота кадров : 23,976 кадра/сек
Цветовое пространство : YUV
Субдискретизация насыщенности : 4:2:0
Битовая глубина : 8 бит
Тип развёртки : Прогрессивная
Бит/(Пиксели*Кадры) : 0.494
Размер потока : 7,13 Гбайт (83%)
Язык : English
Default : Да
Forced : Нет
Коэффициенты матрицы : BT.709
Аудио #1
Идентификатор : 2
Формат : AC-3
Формат/Информация : Audio Coding 3
Профиль формата : Dolby Digital
Расширение режима : CM (complete main)
Параметр Endianness формата : Big
Идентификатор кодека : A_AC3
Продолжительность : 1 ч. 37 м.
Вид битрейта : Постоянный
Битрейт : 320 Кбит/сек
Каналы : 2 канала
Расположение каналов : Front: L R
Частота : 48,0 КГц
Битовая глубина : 16 бит
Метод сжатия : С потерями
Размер потока : 222 Мбайт (3%)
Заголовок : AC3 2.0 @ 320 kbps - Многоголосый закадровый, Blu-ray
Язык : Russian
Default : Да
Forced : Нет
Аудио #2
Идентификатор : 3
Формат : DTS
Формат/Информация : Digital Theater Systems
Режим : 16
Параметр Endianness формата : Big
Идентификатор кодека : A_DTS
Продолжительность : 1 ч. 37 м.
Вид битрейта : Постоянный
Битрейт : 1509 Кбит/сек
Каналы : 6 каналов
Расположение каналов : Front: L C R, Side: L R, LFE
Частота : 48,0 КГц
Битовая глубина : 24 бит
Метод сжатия : С потерями
Задержка видео : 11 мс.
Размер потока : 1,02 Гбайт (12%)
Заголовок : DTS 5.1 @ 1536 kbps
Язык : English
Default : Нет
Forced : Нет
Текст #1
Идентификатор : 4
Формат : UTF-8
Идентификатор кодека : S_TEXT/UTF8
Идентификатор кодека/Информация : UTF-8 Plain Text
Язык : Russian
Default : Нет
Forced : Нет
Текст #2
Идентификатор : 5
Формат : UTF-8
Идентификатор кодека : S_TEXT/UTF8
Идентификатор кодека/Информация : UTF-8 Plain Text
Язык : English
Default : Нет
Forced : Нет
Меню
00:00:00.000 : en:00:00:00.000
00:06:51.828 : en:00:06:51.828
00:12:48.434 : en:00:12:48.434
00:17:21.290 : en:00:17:21.290
00:26:58.325 : en:00:26:58.325
00:32:11.221 : en:00:32:11.221
00:39:43.881 : en:00:39:43.881
00:44:10.648 : en:00:44:10.648
00:49:39.101 : en:00:49:39.101
00:57:55.013 : en:00:57:55.013
01:04:55.600 : en:01:04:55.600
01:11:26.032 : en:01:11:26.032
01:13:13.222 : en:01:13:13.222
01:17:12.628 : en:01:17:12.628
01:20:17.271 : en:01:20:17.271
01:23:04.354 : en:01:23:04.354
01:33:01.409 : en:01:33:01.409

-
Цитата:

*** Сохранены оригинальные чаптеры как на Blu-ray.
Вне форума [Профиль] [ЛС]
Показать сообщения:    
Ответить на тему

Текущее время: Сегодня 08:56

Часовой пояс: GMT + 3



Вы не можете начинать темы
Вы не можете отвечать на сообщения
Вы не можете редактировать свои сообщения
Вы не можете удалять свои сообщения
Вы не можете голосовать в опросах
Вы не можете прикреплять файлы к сообщениям
Вы не можете скачивать файлы