Сегодня идет свободное скачивание без начисления Download

Игра в четыре руки / Le guignolo (1980) [1080p] BDRip

Ответить на тему
 
Автор
Сообщение

Omen ®

Стаж: 4 года 1 месяц

Сообщений: 194382

Торрент-статистика

Пост 21-Янв-2013 20:12

[Цитировать]

- Русское название: Игра в четыре руки
Оригинальное название: Le guignolo
Год выпуска: 1980
Жанр: Боевик, Комедия, Детектив
Описание фильма:
Специализация симпатичного афериста Александра Дюпре — богатые вдовушки, из которых он изящно выколачивает деньги, каждый раз выдавая себя за разных персонажей. Все шло гладко до того дня, когда он оказался втянутым… в дело о международном промышленном шпионаже, затрагивающем стратегические интересы Франции.
Режиссер: Жорж Лотнер
Актеры: Жан-Поль Бельмондо, Мирелла Д’Анджело, Мишель Галабрю, Карла Романелли, Паоло Боначелли, Жорж Жере, Мишель Бон, Шарль Жерар, Морис Озель, Тони Кендалл
Продолжительность: 01:47:18
Перевод: Дублированный
Вид субтитров: Вшитые Русские, английские, болгарские

Видеокодек: MPEG-4 AVC/H.264
Битрейт видео: ~12.0 Mbps
Размер кадра: 1804x1080p
Качество видео: BDRip
Аудио#1: Русский 48 kHz, AC3, 2 ch, ~ 192 kbps [Профессиональный (полное дублирование) Киностудия им. М.Горького]
Аудио#2: Русский 48 kHz, AC3, 6 ch, ~ 448 kbps [Профессиональный (многоголосый, закадровый) RUSCICO]
Аудио#3: Русский 48 kHz, AC3, 2 ch, ~ 192 kbps [Профессиональный (многоголосый, закадровый) НТВ+]
Аудио#4: Французкий 48 kHz, AC3, 2 ch, ~ 192 kbps

MediaInfo

General
Unique ID : 190842914338416786203249849153741409751 (0x8F9302228F7095E3A6C54C22FBBC4DD7)
Complete name : Igra.v.chetyre.ruki.1980.x264.BDRip.1080p.mkv
Format : Matroska
Format version : Version 2
File size : 9.76 GiB
Duration : 1h 47mn
Overall bit rate : 13.0 Mbps
Movie name : Le guignolo (1980) - fanatus
Encoded date : UTC 2012-01-11 18:08:47
Writing application : mkvmerge v3.4.0 ('Rapunzel') сборка от May 15 2010 09:38:20
Writing library : libebml v0.8.0 + libmatroska v0.9.0
Video
ID : 1
Format : AVC
Format/Info : Advanced Video Codec
Format profile : [url=mailto:[email protected]][email protected][/url]
Format settings, CABAC : Yes
Format settings, ReFrames : 4 frames
Codec ID : V_MPEG4/ISO/AVC
Duration : 1h 47mn
Bit rate : 12.0 Mbps
Width : 1 804 pixels
Height : 1 080 pixels
Display aspect ratio : 1.670
Frame rate : 23.976 fps
Color space : YUV
Chroma subsampling : 4:2:0
Bit depth : 8 bits
Scan type : Progressive
Bits/(Pixel*Frame) : 0.257
Stream size : 8.80 GiB (90%)
Title : Le guignolo (1980)
Writing library : x264 core 116 r2074 2641b9e
Encoding settings : cabac=1 / ref=4 / deblock=1:-3:-3 / analyse=0x3:0x133 / me=umh / subme=11 / psy=1 / psy_rd=1.00:0.10 / mixed_ref=1 / me_range=32 / chroma_me=1 / trellis=2 / 8x8dct=1 / cqm=0 / deadzone=21,11 /
fast_pskip=0 / chroma_qp_offset=-3 / threads=16 / sliced_threads=0 / nr=0 / decimate=1 / interlaced=0 / bluray_compat=0 / constrained_intra=0 / bframes=8 / b_pyramid=2 / b_adapt=2 / b_bias=0 / direct=3 / weightb=1 / open_gop=0 /
weightp=2 / keyint=250 / keyint_min=23 / scenecut=40 / intra_refresh=0 / rc_lookahead=60 / rc=2pass / mbtree=1 / bitrate=12000 / ratetol=1.0 / qcomp=0.70 / qpmin=0 / qpmax=69 / qpstep=4 / cplxblur=20.0 / qblur=0.5 / ip_ratio=1.40 /
aq=1:0.90
Language : French
Default : Yes
Forced : No
Audio #1
ID : 2
Format : AC-3
Format/Info : Audio Coding 3
Format profile : Dolby Digital
Mode extension : CM (complete main)
Format settings, Endianness : Big
Codec ID : A_AC3
Duration : 1h 47mn
Bit rate mode : Constant
Bit rate : 192 Kbps
Channel(s) : 2 channels
Channel positions : Front: L R
Sampling rate : 48.0 KHz
Bit depth : 16 bits
Compression mode : Lossy
Stream size : 147 MiB (1%)
Title : Dub (USSR)
Language : Russian
Default : Yes
Forced : No
Audio #2
ID : 3
Format : AC-3
Format/Info : Audio Coding 3
Mode extension : CM (complete main)
Format settings, Endianness : Big
Codec ID : A_AC3
Duration : 1h 47mn
Bit rate mode : Constant
Bit rate : 448 Kbps
Channel(s) : 6 channels
Channel positions : Front: L C R, Side: L R, LFE
Sampling rate : 48.0 KHz
Bit depth : 16 bits
Compression mode : Lossy
Stream size : 344 MiB (3%)
Title : MVO (RUSCICO)
Language : Russian
Default : No
Forced : No
Audio #3
ID : 4
Format : AC-3
Format/Info : Audio Coding 3
Format profile : Dolby Digital
Mode extension : CM (complete main)
Format settings, Endianness : Big
Codec ID : A_AC3
Duration : 1h 47mn
Bit rate mode : Constant
Bit rate : 192 Kbps
Channel(s) : 2 channels
Channel positions : Front: L R
Sampling rate : 48.0 KHz
Bit depth : 16 bits
Compression mode : Lossy
Stream size : 147 MiB (1%)
Title : MVO (NTV+)
Language : Russian
Default : No
Forced : No
Audio #4
ID : 5
Format : AC-3
Format/Info : Audio Coding 3
Mode extension : CM (complete main)
Format settings, Endianness : Big
Codec ID : A_AC3
Duration : 1h 47mn
Bit rate mode : Constant
Bit rate : 192 Kbps
Channel(s) : 2 channels
Channel positions : Front: L R
Sampling rate : 48.0 KHz
Bit depth : 16 bits
Compression mode : Lossy
Stream size : 147 MiB (1%)
Title : Original
Language : French
Default : No
Forced : No
Text #1
ID : 6
Format : UTF-8
Codec ID : S_TEXT/UTF8
Codec ID/Info : UTF-8 Plain Text
Language : Russian
Default : No
Forced : No
Text #2
ID : 7
Format : UTF-8
Codec ID : S_TEXT/UTF8
Codec ID/Info : UTF-8 Plain Text
Language : English
Default : No
Forced : No
Text #3
ID : 8
Format : UTF-8
Codec ID : S_TEXT/UTF8
Codec ID/Info : UTF-8 Plain Text
Language : Bulgarian
Default : No
Forced : No
Menu
00:00:00.000 : en:Chapter 01
00:08:03.941 : en:Chapter 02
00:18:19.014 : en:Chapter 03
00:26:12.529 : en:Chapter 04
00:36:41.616 : en:Chapter 05
00:47:04.696 : en:Chapter 06
00:57:30.321 : en:Chapter 07
01:05:09.780 : en:Chapter 08
01:14:58.452 : en:Chapter 09
01:26:03.575 : en:Chapter 10
01:33:53.628 : en:Chapter 11
01:45:30.824 : en:Chapter 12
01:47:18.390 : en:Chapter 13
Скриншоты:
       
Время раздачи: с 9:00 до 23:00
Вне форума [Профиль] [ЛС]
Показать сообщения:    
Ответить на тему

Текущее время: Сегодня 00:21

Часовой пояс: GMT + 3



Вы не можете начинать темы
Вы не можете отвечать на сообщения
Вы не можете редактировать свои сообщения
Вы не можете удалять свои сообщения
Вы не можете голосовать в опросах
Вы не можете прикреплять файлы к сообщениям
Вы не можете скачивать файлы