Сегодня идет свободное скачивание без начисления Download

Удар головой / Coup de tete (Жан-Жак Анно) [1979 , Драма, Комедия, Спорт ] DVDRip

Ответить на тему
 
Автор
Сообщение

Omen ®

Стаж: 4 года 1 месяц

Сообщений: 194394

Торрент-статистика

Пост 21-Янв-2013 22:28

[Цитировать]

-Удар головой / Coup de tete- Русское название: Удар головой
Оригинальное название: Coup de tete
Год выпуска: 1979
Жанр: Драма, Комедия, Спорт
Страна: Франция
Производство: Gaumont, Societe Francaise de Production (SFP)
Описание фильма:
История злоключений Франсуа Перрена, бывшего футболиста, любовные похождения которого обернулись для него тюрьмой. Пройдя через множество недоразумений, Франсуа выручает свою команду и становится героем.
Режиссер: Жан-Жак Анно
Сценарий: Франсис Вебер, Ален Годар
Продюсер: Ален Пуаре
Актеры: Патрик Деваэр, Френс Дуньяк, Дороти Джемма, Морис Барье, Робер Дальбан,Марио Давид, Юбер Дешам, Дора Долл, Франсуа Дирек, Патрик Флёрем, Мишель Фортен, Жак Франц, Коринн Маршан, Поль Ле Персон, Жан Буиз
Продолжительность: 01:25:10
Перевод: Многоголосый закадровый
Субтитры: Отсутствуют

Дата мировой премьеры: 14 февраля 1979
Видеокодек: MPEG-4 AVC/H.264
Битрейт видео: ~2059 Кбит/сек
Размер кадра: 720x432
Качество видео: DVDRip
Аудиокодек: AC3 2.0
Битрейт аудио: 224 kbps

Награды:

Сезар, 1980 год
Победитель (1):
Лучший актер второго плана (Жан Буиз)

MediaInfo:

Общее
Уникальный идентификатор : 233538246823373089397778587323128128205 (0xAFB1D48CAF5DEBEFB98D69277E60A2CD)
Полное имя : D:\Downloads\Удар головой.mkv
Формат : Matroska
Версия формата : Version 2
Размер файла : 1,36 Гбайт
Продолжительность : 1 ч. 25 м.
Общий поток : 2284 Кбит/сек
Дата кодирования : UTC 2013-01-19 23:24:51
Программа кодирования : mkvmerge v5.7.0 ('The Whirlwind') built on Jul 29 2012 15:12:35
Библиотека кодирования : libebml v1.2.3 + libmatroska v1.3.0
Видео
Идентификатор : 1
Формат : AVC
Формат/Информация : Advanced Video Codec
Профиль формата : [url=mailto:[email protected]][email protected][/url]
Параметр CABAC формата : Да
Параметр ReFrames формата : 8 кадров
Режим смешивания : Header stripping
Идентификатор кодека : V_MPEG4/ISO/AVC
Продолжительность : 1 ч. 25 м.
Битрейт : 2059 Кбит/сек
Ширина : 720 пикселей
Высота : 432 пикселя
Соотношение сторон : 1,667
Режим частоты кадров : Постоянный
Частота кадров : 25,000 кадров/сек
Цветовое пространство : YUV
Субдискретизация насыщенности : 4:2:0
Битовая глубина : 8 бит
Тип развёртки : Прогрессивная
Бит/(Пиксели*Кадры) : 0.265
Размер потока : 1,20 Гбайт (88%)
Заголовок : Coup de tete
Библиотека кодирования : x264 core 129 r2230 1cffe9f
Настройки программы : cabac=1 / ref=8 / deblock=1:-1:-1 / analyse=0x3:0x133 / me=umh / subme=9 / psy=1 / psy_rd=1.00:0.15 / mixed_ref=1 / me_range=16 / chroma_me=1 / trellis=2 / 8x8dct=1 / cqm=0 / deadzone=21,11 / fast_pskip=1 / chroma_qp_offset=-3 / threads=3 / lookahead_threads=1 / sliced_threads=0 / nr=0 / decimate=1 / interlaced=0 / bluray_compat=0 / constrained_intra=0 / bframes=3 / b_pyramid=2 / b_adapt=2 / b_bias=0 / direct=3 / weightb=1 / open_gop=0 / weightp=2 / keyint=250 / keyint_min=25 / scenecut=40 / intra_refresh=0 / rc_lookahead=60 / rc=2pass / mbtree=1 / bitrate=2059 / ratetol=1.0 / qcomp=0.60 / qpmin=0 / qpmax=69 / qpstep=4 / cplxblur=20.0 / qblur=0.5 / ip_ratio=1.40 / aq=1:1.00
Язык : French
Default : Да
Forced : Нет
Аудио
Идентификатор : 2
Формат : AC-3
Формат/Информация : Audio Coding 3
Расширение режима : CM (complete main)
Параметр Endianness формата : Big
Режим смешивания : Header stripping
Идентификатор кодека : A_AC3
Продолжительность : 1 ч. 25 м.
Вид битрейта : Постоянный
Битрейт : 224 Кбит/сек
Каналы : 2 канала
Расположение каналов : Front: L R
Частота : 48,0 КГц
Битовая глубина : 16 бит
Метод сжатия : С потерями
Размер потока : 136 Мбайт (10%)
Заголовок : Многоголосый закадровый
Язык : Russian
Default : Да
Forced : Нет
Скриншоты:                    
Вне форума [Профиль] [ЛС]
Показать сообщения:    
Ответить на тему

Текущее время: Сегодня 02:55

Часовой пояс: GMT + 3



Вы не можете начинать темы
Вы не можете отвечать на сообщения
Вы не можете редактировать свои сообщения
Вы не можете удалять свои сообщения
Вы не можете голосовать в опросах
Вы не можете прикреплять файлы к сообщениям
Вы не можете скачивать файлы