Сегодня идет свободное скачивание без начисления Download

Аргонавты: В поисках золотого руна / Фессалийский великан / I giganti della Tessaglia / Gli argonauti (1960) DVDRip

Ответить на тему
 
Автор
Сообщение

Omen ®

Стаж: 4 года 1 месяц

Сообщений: 194359

Торрент-статистика

Пост 22-Янв-2013 14:08

[Цитировать]

-Аргонавты: В поисках золотого руна / Фессалийский великан / I giganti della Tessaglia / Gli argonauti (1960) DVDRip- Русское название: Аргонавты: В поисках золотого руна / Фессалийский великан
Оригинальное название: I giganti della Tessaglia / Gli argonauti
Год выпуска: 1960
Жанр: Приключения
Страна: Франция, Италия
Описание фильма:
Эта история произошла в незапамятные времена, в древней Греции... царь Ясон - молодой фессалийский мужчина, который вместе со своими соратниками отправляется в свое самое опасное путешествие и отчаянно пытается спасти свою родину от божественного проклятия. Только в том случае, если герои раздобудут украденное золотое руно – подарок Фессалии от самого Зевса – только в таком случаи он сможет вернуть былое расположение богов…
Режиссер: Риккардо Фреда / Riccardo Freda
Актеры: Роланд Кэри, Массимо Джиротти, Лючано Марин, Надя Сандерс, Катя Каро, Альфредо Варелли, Джил Деламар, Мария Тереза Вианелло
Продолжительность: 01:21:52
Перевод: Двуголосый закадровый

Дата мировой премьеры: 6 декабря 1960
Видеокодек: Xvid
Битрейт видео: ~1 923 Kbps
Размер кадра: 688х400
Качество видео: DVDRip
Аудиокодек: AC3 6 ch (Front: L C R, Side: L R, LFE)
Битрейт аудио: 448 Kbps
Исходник DVD5, PAL 4:3 (720x576) VBR
Сэмпл: Ссылка

Медиаинфо

Format : AVI
Format/Info : Audio Video Interleave
File size : 1.36 GiB
Duration : 1h 21mn
Overall bit rate : 2 380 Kbps
Director : CrimeanFox
Writing application : VirtualDubMod 1.5.10.3 | www.virtualdub-fr.org || (build 2550/release)
Writing library : VirtualDub build 32706/release
Video
ID : 0
Format : MPEG-4 Visual
Format profile : Advanced [email protected]
Format settings, BVOP : 2
Format settings, QPel : No
Format settings, GMC : No warppoints
Format settings, Matrix : Default (MPEG)
Codec ID : XVID
Codec ID/Hint : XviD
Duration : 1h 21mn
Bit rate : 1 923 Kbps
Width : 688 pixels
Height : 400 pixels
Display aspect ratio : 1.720
Frame rate : 25.000 fps
Color space : YUV
Chroma subsampling : 4:2:0
Bit depth : 8 bits
Scan type : Progressive
Compression mode : Lossy
Bits/(Pixel*Frame) : 0.279
Stream size : 1.10 GiB (81%)
Writing library : XviD 65
Audio
ID : 1
Format : AC-3
Format/Info : Audio Coding 3
Mode extension : CM (complete main)
Format settings, Endianness : Big
Codec ID : 2000
Duration : 1h 21mn
Bit rate mode : Constant
Bit rate : 448 Kbps
Channel(s) : 6 channels
Channel positions : Front: L C R, Side: L R, LFE
Sampling rate : 48.0 KHz
Bit depth : 16 bits
Compression mode : Lossy
Stream size : 262 MiB (19%)
Alignment : Split accross interleaves
Interleave, duration : 40 ms (1.00 video frame)
Interleave, preload duration : 500 ms
Скриншоты:
         
         
Время раздачи: с 10:00 до 24:00
Вне форума [Профиль] [ЛС]
Показать сообщения:    
Ответить на тему

Текущее время: Сегодня 10:54

Часовой пояс: GMT + 3



Вы не можете начинать темы
Вы не можете отвечать на сообщения
Вы не можете редактировать свои сообщения
Вы не можете удалять свои сообщения
Вы не можете голосовать в опросах
Вы не можете прикреплять файлы к сообщениям
Вы не можете скачивать файлы