Сегодня идет свободное скачивание без начисления Download

Побег из Алькатраса / Escape from Alcatraz (1979) [720p] BDRip

Ответить на тему
 
Автор
Сообщение

Omen ®

Стаж: 4 года 1 месяц

Сообщений: 194394

Торрент-статистика

Пост 23-Янв-2013 11:00

[Цитировать]

- Побег из Алькатраса / Escape from Alcatraz (1979) [720p] BDRip
- «No one has ever escaped from Alcatraz... And no one ever will!» - Название: Побег из Алькатраса
Оригинальное название: Escape from Alcatraz
Год выпуска: 1979
Жанр: Боевик, триллер, драма, криминал
Выпущено: США, Paramount Pictures, The Malpaso Company
Описание фильма:
Тюрьмы созданы для того, чтобы изолировать от прочего мира отдельных субъектов. Однако среди заключенных всегда находились смельчаки, способные совершить побег. Общество всегда лелеяло мечту о возведении совершенной тюрьмы, из которой невозможно было бы бежать. И такое заведение удалось построить на острове неподалеку от Сан — Франциско. Тюрьма называлась «Алькатрас». Двадцать девять лет считалась она самой надежной тюрьмой США. В ней сидели знаменитые воры, мошенники и даже сам Аль Капоне. Но в один прекрасный день порог этой страшной тюрьмы переступил грабитель банков Фрэнк Моррис. Он не пожелал отбывать в «гостеприимных» стенах назначенный судом срок и осуществил один из величайших побегов в истории криминалистики
Режиссер: Дон Сигел
В ролях: Клинт Иствуд, Патрик МакГуэн, Робертс Блоссом, Джек Тибо, Фред Уорд, Пол Бенджамин, Ларри Хэнкин, Брюс М. Фишер, Фрэнк Ронцио, Фред Статмен
Продолжительность: 01:51:55
Перевод: Многоголосый закадровый, Одноголосый закадровый
Субтитры: Английские

Рейтинг MPAA: PG 13– лицам до 13 лет обязательное присутствие родителей!!!
Дата мировой премьеры: 22 июня 1979
Дата DVD премьеры: 9 февраля 2010, «Юниверсал Пикчерс Рус»
Видеокодек: MPEG-4 AVC
Битрейт видео: ~4484 Кбит/сек
Размер кадра: 1280х720
Качество видео: BDRip
Аудио:
1. Dolby Digital Русский 5.1 / 48 kHz / 448 kbps (Многоголосый закадровый, Universal Pictures)
2. Dolby Digital Русский 2.0 / 48 kHz / 192 kbps (Многоголосый закадровый, НТВ)
3. Dolby Digital Русский 2.0 / 48 kHz / 192 kbps (Многоголосый закадровый, ТВ5)
4. Dolby Digital Русский 2.0 / 48 kHz / 192 kbps (Одноголосый закадровый, Л. Володарский)
5. Dolby Digital Русский 2.0 / 48 kHz / 192 kbps (Одноголосый закадровый, А. Михалев)
6. Dolby Digital Английский 5.1 / 48 kHz / 640 kbps / 24-bit

MediaInfo

Общее
Уникальный идентификатор : 204483504618639285183599246066296781799 (0x99D61728E64BE85AB74704CDC2477BE7)
Полное имя : E:\Video\Pobeg.iz.Alkatrasa.1979.x264.BDRip.720p.mkv
Формат : Matroska
Версия формата : Version 4 / Version 2
Размер файла : 5,06 Гбайт
Продолжительность : 1 ч. 51 м.
Общий поток : 6468 Кбит/сек
Дата кодирования : UTC 2010-02-22 21:41:31
Программа кодирования : mkvmerge v5.9.0 ('On The Loose') built on Dec 9 2012 15:37:01
Библиотека кодирования : libebml v1.3.0 + libmatroska v1.4.0
Видео
Идентификатор : 1
Формат : AVC
Формат/Информация : Advanced Video Codec
Профиль формата : [url=mailto:[email protected]][email protected][/url]
Параметр CABAC формата : Да
Параметр ReFrames формата : 9 кадров
Идентификатор кодека : V_MPEG4/ISO/AVC
Продолжительность : 1 ч. 51 м.
Битрейт : 4484 Кбит/сек
Ширина : 1280 пикселей
Высота : 720 пикселей
Соотношение сторон : 16:9
Режим частоты кадров : Постоянный
Частота кадров : 23,976 кадра/сек
Цветовое пространство : YUV
Субдискретизация насыщенности : 4:2:0
Битовая глубина : 8 бит
Тип развёртки : Прогрессивная
Бит/(Пиксели*Кадры) : 0.203
Размер потока : 3,51 Гбайт (69%)
Библиотека кодирования : x264 core 129 r2230 1cffe9f
Настройки программы : cabac=1 / ref=9 / deblock=1:-1:-1 / analyse=0x3:0x113 / me=umh / subme=9 / psy=1 / psy_rd=1.00:0.15 / mixed_ref=1 / me_range=24 / chroma_me=1 / trellis=2 / 8x8dct=1 / cqm=0 / deadzone=21,11 / fast_pskip=1 / chroma_qp_offset=-3 / threads=6 / lookahead_threads=1 / sliced_threads=0 / nr=0 / decimate=1 / interlaced=0 / bluray_compat=0 / constrained_intra=0 / bframes=13 / b_pyramid=2 / b_adapt=2 / b_bias=0 / direct=1 / weightb=1 / open_gop=0 / weightp=2 / keyint=230 / keyint_min=23 / scenecut=40 / intra_refresh=0 / rc=crf / mbtree=0 / crf=21.0 / qcomp=0.60 / qpmin=0 / qpmax=69 / qpstep=4 / ip_ratio=1.40 / pb_ratio=1.30 / aq=1:1.00
Язык : English
Default : Да
Forced : Нет
Аудио #1
Идентификатор : 2
Формат : AC-3
Формат/Информация : Audio Coding 3
Расширение режима : CM (complete main)
Параметр Endianness формата : Big
Идентификатор кодека : A_AC3
Продолжительность : 1 ч. 51 м.
Вид битрейта : Постоянный
Битрейт : 448 Кбит/сек
Каналы : 6 каналов
Расположение каналов : Front: L C R, Side: L R, LFE
Частота : 48,0 КГц
Битовая глубина : 16 бит
Метод сжатия : С потерями
Размер потока : 359 Мбайт (7%)
Заголовок : MVO (Universal Pictures Rus)
Язык : Russian
Default : Да
Forced : Нет
Аудио #2
Идентификатор : 3
Формат : AC-3
Формат/Информация : Audio Coding 3
Расширение режима : CM (complete main)
Параметр Endianness формата : Big
Идентификатор кодека : A_AC3
Продолжительность : 1 ч. 51 м.
Вид битрейта : Постоянный
Битрейт : 192 Кбит/сек
Каналы : 2 канала
Расположение каналов : Front: L R
Частота : 48,0 КГц
Битовая глубина : 16 бит
Метод сжатия : С потерями
Размер потока : 154 Мбайт (3%)
Заголовок : MVO (HTB+)
Язык : Russian
Default : Нет
Forced : Нет
Аудио #3
Идентификатор : 4
Формат : AC-3
Формат/Информация : Audio Coding 3
Расширение режима : CM (complete main)
Параметр Endianness формата : Big
Идентификатор кодека : A_AC3
Продолжительность : 1 ч. 51 м.
Вид битрейта : Постоянный
Битрейт : 192 Кбит/сек
Каналы : 2 канала
Расположение каналов : Front: L R
Частота : 48,0 КГц
Битовая глубина : 16 бит
Метод сжатия : С потерями
Размер потока : 154 Мбайт (3%)
Заголовок : MVO (Спб, 5 канал)
Язык : Russian
Default : Нет
Forced : Нет
Аудио #4
Идентификатор : 5
Формат : AC-3
Формат/Информация : Audio Coding 3
Расширение режима : CM (complete main)
Параметр Endianness формата : Big
Идентификатор кодека : A_AC3
Продолжительность : 1 ч. 51 м.
Вид битрейта : Постоянный
Битрейт : 192 Кбит/сек
Каналы : 2 канала
Расположение каналов : Front: L R
Частота : 48,0 КГц
Битовая глубина : 16 бит
Метод сжатия : С потерями
Задержка видео : 2 с. 50 мс.
Размер потока : 154 Мбайт (3%)
Заголовок : AVO (Леонид Володарский)
Язык : Russian
Default : Нет
Forced : Нет
Аудио #5
Идентификатор : 6
Формат : AC-3
Формат/Информация : Audio Coding 3
Расширение режима : CM (complete main)
Параметр Endianness формата : Big
Идентификатор кодека : A_AC3
Продолжительность : 1 ч. 51 м.
Вид битрейта : Постоянный
Битрейт : 192 Кбит/сек
Каналы : 2 канала
Расположение каналов : Front: L R
Частота : 48,0 КГц
Битовая глубина : 16 бит
Метод сжатия : С потерями
Размер потока : 154 Мбайт (3%)
Заголовок : AVO (Алексей Михалёв)
Язык : Russian
Default : Нет
Forced : Нет
Аудио #6
Идентификатор : 7
Формат : AC-3
Формат/Информация : Audio Coding 3
Расширение режима : CM (complete main)
Параметр Endianness формата : Big
Идентификатор кодека : A_AC3
Продолжительность : 1 ч. 51 м.
Вид битрейта : Постоянный
Битрейт : 640 Кбит/сек
Каналы : 6 каналов
Расположение каналов : Front: L C R, Side: L R, LFE
Частота : 48,0 КГц
Битовая глубина : 16 бит
Метод сжатия : С потерями
Размер потока : 512 Мбайт (10%)
Заголовок : Original
Язык : English
Default : Нет
Forced : Нет
Текст
Идентификатор : 8
Формат : UTF-8
Идентификатор кодека : S_TEXT/UTF8
Идентификатор кодека/Информация : UTF-8 Plain Text
Заголовок : английский
Язык : English
Default : Нет
Forced : Нет
Скриншоты:
-Раздача: 24/7-Не забываем говорить спасибо, Вам не сложно, а мне приятно)))
Прошу с раздачи не уходить! Скачал сам, дай и другим скачать!!!
Приятного просмотра)))
Вне форума [Профиль] [ЛС]
Показать сообщения:    
Ответить на тему

Текущее время: Сегодня 02:55

Часовой пояс: GMT + 3



Вы не можете начинать темы
Вы не можете отвечать на сообщения
Вы не можете редактировать свои сообщения
Вы не можете удалять свои сообщения
Вы не можете голосовать в опросах
Вы не можете прикреплять файлы к сообщениям
Вы не можете скачивать файлы