Сегодня идет свободное скачивание без начисления Download

Дуэлянты / The Duellists (1977) HDRip

Ответить на тему
 
Автор
Сообщение

Omen ®

Стаж: 4 года 1 месяц

Сообщений: 194382

Торрент-статистика

Пост 23-Янв-2013 20:28

[Цитировать]

-Дуэлянты / The Duellists (1977) HDRip«Fencing is a science. Loving is a passion. Duelling is an obsession.»- Русское название: Дуэлянты
Оригинальное название: The Duellists
Год выпуска: 1977
Жанр: Драма
Описание фильма:
По рассказу "Дуэль" Джозефа Конрада.
Уверенный дебют режиссера Ридли Скотта, которому еще предстояло создать "Чужого" и "Бегущего по лезвию бритвы". Экранизация отличается исключительно мощной операторской работой, фильм снят красиво. Это история двух офицеров наполеоновской армии (Кэррэдин и Кайтел), пытающихся убить друг друга на дуэли (а их была целая вереница) в течение 30 лет. Оба болезненно одержимы военными традициями офицерства и кодексом личной чести. Финни в роли шефа полиции Парижа при Наполеоне. В картине чувствуется почерк Ридли Скотта, подчиняющего сюжет стилю при изображении сцен наполеоновских войн. Визуальный ряд завораживает. Картина получила приз за лучший дебют на МКФ в Канне.

Режиссер: Ридли Скотт / Ridley Scott
Актеры: Кит Кэрредин, Харви Кейтель, Альберт Финни, Эдвард Фокс, Кристина Рейнес, Роберт Стивенс, Том Конти, Джон МакИнери, Дайана Куик, Алан Армстронг, Гэй Хэмилтон, Мэг Винн Оуэн, Дженни Ранэйкр, Уильям Морган Шеппард, Пит Постлетуэйт
Продолжительность: 01:40:31
Перевод: Многоголосый закадровый

_____________________
Видеокодек: Xvid
Битрейт видео: ~1623 Kbps
Размер кадра: 688x384
Качество видео: HDRip
Аудио: AC3, 6 ch, 448.00 kbps-

MI

General
Complete name : Дуэлянты 1977.HDRip.avi
Format : AVI
Format/Info : Audio Video Interleave
File size : 1.46 GiB
Duration : 1h 40mn
Overall bit rate : 2 080 Kbps
Writing application : VirtualDubMod 1.5.10.3 | www.virtualdub-fr.org || (build 2550/release)
Writing library : VirtualDubMod build 2550/release
Video
ID : 0
Format : MPEG-4 Visual
Format profile : Advanced [email protected]
Format settings, BVOP : 1
Format settings, QPel : No
Format settings, GMC : No warppoints
Format settings, Matrix : Custom
Codec ID : XVID
Codec ID/Hint : XviD
Duration : 1h 40mn
Bit rate : 1 623 Kbps
Width : 688 pixels
Height : 384 pixels
Display aspect ratio : 16:9
Frame rate : 23.976 fps
Color space : YUV
Chroma subsampling : 4:2:0
Bit depth : 8 bits
Scan type : Progressive
Compression mode : Lossy
Bits/(Pixel*Frame) : 0.256
Stream size : 1.14 GiB (78%)
Writing library : XviD 73
Audio
ID : 1
Format : AC-3
Format/Info : Audio Coding 3
Mode extension : CM (complete main)
Format settings, Endianness : Big
Codec ID : 2000
Duration : 1h 40mn
Bit rate mode : Constant
Bit rate : 448 Kbps
Channel(s) : 6 channels
Channel positions : Front: L C R, Side: L R, LFE
Sampling rate : 48.0 KHz
Bit depth : 16 bits
Compression mode : Lossy
Stream size : 322 MiB (22%)
Alignment : Split accross interleaves
Interleave, duration : 42 ms (1.00 video frame)
Interleave, preload duration : 500 ms

Награды

Британская академия, 1979 год
Номинации (2):
Лучшая работа оператора
Лучшие костюмы
Каннский кинофестиваль, 1977 год
Победитель (1):
Лучший дебют (Ридли Скотт)
Номинации (1):
Золотая пальмовая ветвь
-
Время раздачи: с 23:00 до 6:30
Вне форума [Профиль] [ЛС]
Показать сообщения:    
Ответить на тему

Текущее время: Сегодня 20:24

Часовой пояс: GMT + 3



Вы не можете начинать темы
Вы не можете отвечать на сообщения
Вы не можете редактировать свои сообщения
Вы не можете удалять свои сообщения
Вы не можете голосовать в опросах
Вы не можете прикреплять файлы к сообщениям
Вы не можете скачивать файлы