Сегодня идет свободное скачивание без начисления Download

Тайна инков / Secret of the Incas (Джерри Хоппер / Jerry Hopper) [1954 , DVDRip]

Ответить на тему
 
Автор
Сообщение

Omen ®

Стаж: 4 года 1 месяц

Сообщений: 194390

Торрент-статистика

Пост 25-Янв-2013 21:52

[Цитировать]

-Тайна инков / Secret of the Incas (1954) DVDRip- Русское название: Тайна инков
Оригинальное название: Secret of the Incas
Год выпуска: 1954
Жанр: Приключения
Страна: США
Описание фильма:
Солнечный диск, священная реликвия инков, сделанный из золота и украшенный драгоценными камнями, в древние времена был спрятан в гробнице Инки Манко в Мачу Пикчу. Он превратился в легенду. И те, кто верил в нее — авантюристы, мечтающие об обогащении и инки, верящие, что с ним возродится их народ, безуспешно искали его многие годы. И вот американцу Гарри Стилу, занимающегося организацией туристических экскурсий в Перу, попадается недостающий кусочек каменной карты, хранящейся в музее Куско и наводящей на след спрятанного легендарного сокровища…
Доп.информация: Фильм был положен на полку не без участия Спилберга, не был закуплен для домашнего видео,не показывался в кинотеатрах, так как облик Индианы Джонса во многом списан со Стила. Срисована и часть эпизодов.©
Режиссер: Джерри Хоппер / Jerry Hopper
Актеры: Чарлтон Хестон, Николь Море, Има Сумак, Роберт Янг, Томас Митчелл, Гленда Фаррелл, Майкл Пэйт, Леон Эскин, Уильям Генри, Курт Кэтч, Эдвард Колманс
Продолжительность: 01:37:08
Перевод: Одноголосый закадровый Kolobroad

Дата мировой премьеры: 28 мая 1954
Видеокодек: Xvid
Битрейт видео: ~1 934 Kbps
Размер кадра: 704х512
Качество видео: DVDRip
Аудиокодек: AC3 2 ch
Битрейт аудио: 192 Kbps
Исходник DVD5, PAL 4:3 (720x576) VBR
Сэмпл: Ссылка

Медиаинфо

Format : AVI
Format/Info : Audio Video Interleave
File size : 1.45 GiB
Duration : 1h 37mn
Overall bit rate : 2 135 Kbps
Director : CrimeanFox
Writing application : VirtualDubMod 1.5.10.3 | www.virtualdub-fr.org || (build 2550/release)
Writing library : VirtualDub build 32706/release
Video
ID : 0
Format : MPEG-4 Visual
Format profile : Advanced [email protected]
Format settings, BVOP : 2
Format settings, QPel : No
Format settings, GMC : No warppoints
Format settings, Matrix : Custom
Codec ID : XVID
Codec ID/Hint : XviD
Duration : 1h 37mn
Bit rate : 1 934 Kbps
Width : 704 pixels
Height : 512 pixels
Display aspect ratio : 1.375
Frame rate : 25.000 fps
Color space : YUV
Chroma subsampling : 4:2:0
Bit depth : 8 bits
Scan type : Progressive
Compression mode : Lossy
Bits/(Pixel*Frame) : 0.215
Stream size : 1.31 GiB (91%)
Writing library : XviD 65
Audio
ID : 1
Format : AC-3
Format/Info : Audio Coding 3
Mode extension : CM (complete main)
Format settings, Endianness : Big
Codec ID : 2000
Duration : 1h 37mn
Bit rate mode : Constant
Bit rate : 192 Kbps
Channel(s) : 2 channels
Channel positions : Front: L R
Sampling rate : 48.0 KHz
Bit depth : 16 bits
Compression mode : Lossy
Stream size : 133 MiB (9%)
Alignment : Split accross interleaves
Interleave, duration : 40 ms (1.00 video frame)
Interleave, preload duration : 500 ms
Скриншоты:
         
         
Время раздачи: с 10:00 до 24:00
Вне форума [Профиль] [ЛС]
Похожие темы
Форум Тема Автор Торрент Отв. Посл. сообщение
./templates/default/images/folder_dl.gif Приключения и квесты Mystery Trackers: Blackrow\'s Secret Collector\'s Edition / Охотники за тайнами. Загадка рода Блэкроу. Коллекционное издание [P] [RUS / ENG] (2014) Omen
34 | 1

0 | 445

12

2015-06-06 00:09
Omen Последнее
Показать сообщения:    
Ответить на тему

Текущее время: Сегодня 17:25

Часовой пояс: GMT + 3



Вы не можете начинать темы
Вы не можете отвечать на сообщения
Вы не можете редактировать свои сообщения
Вы не можете удалять свои сообщения
Вы не можете голосовать в опросах
Вы не можете прикреплять файлы к сообщениям
Вы не можете скачивать файлы