Сегодня идет свободное скачивание без начисления Download

Испанские морские владения / The Spanish Main (1945) DVDRip

Ответить на тему
 
Автор
Сообщение

Omen ®

Стаж: 4 года 1 месяц

Сообщений: 194382

Торрент-статистика

Пост 27-Янв-2013 02:56

[Цитировать]

-Испанские морские владения / The Spanish Main (1945) DVDRip- Русское название: Испанские морские владения
Оригинальное название: The Spanish Main
Год выпуска: 1945
Жанр: Приключения, Мелодрама
Страна: США
Описание фильма:
Испанские морские владения... жестокий, безжалостный мир, где только сила, давала человеку возможность, сохранить то, что имело для него ценность, включая собственную жизнь.
Поэтому, вы можете понять, как не повезло мирному кораблю, который из-за урагана сбился с курса, и потерпел крушение у берегов Картахены, города, правитель которого был известен особой жестокостью и коварством.
Режиссер: Фрэнк Борзеги / Frank Borzage
Актеры: Морин О’Хара, Пол Хенрейд, Уолтер Слезак, Бинни Барнс, Джон Эмери, Бартон МакЛэйн, Дж. М. Кэрриган, Фриц Лейбер, Нэнси Гейтс, Джек Ла Ру
Продолжительность: 01:40:27
Перевод: Одноголосый закадровый

Дата мировой премьеры: 6 ноября 1945
Видеокодек: Xvid
Битрейт видео: ~1 948 Kbps
Размер кадра: 688х512
Качество видео: DVDRip
Аудиокодек: AC3 2 ch
Битрейт аудио: 192 Kbps
Исходник DVD9, PAL 4:3 (720x576) VBR
Сэмпл: Ссылка

Медиаинфо

Format : AVI
Format/Info : Audio Video Interleave
File size : 1.51 GiB
Duration : 1h 40mn
Overall bit rate : 2 149 Kbps
Director : CrimeanFox
Writing application : VirtualDubMod 1.5.10.3 | www.virtualdub-fr.org || (build 2550/release)
Writing library : VirtualDub build 32706/release
Video
ID : 0
Format : MPEG-4 Visual
Format profile : Advanced [email protected]
Format settings, BVOP : 2
Format settings, QPel : No
Format settings, GMC : No warppoints
Format settings, Matrix : Custom
Codec ID : XVID
Codec ID/Hint : XviD
Duration : 1h 40mn
Bit rate : 1 948 Kbps
Width : 688 pixels
Height : 512 pixels
Display aspect ratio : 4:3
Frame rate : 25.000 fps
Color space : YUV
Chroma subsampling : 4:2:0
Bit depth : 8 bits
Scan type : Progressive
Compression mode : Lossy
Bits/(Pixel*Frame) : 0.221
Stream size : 1.37 GiB (91%)
Writing library : XviD 65
Audio
ID : 1
Format : AC-3
Format/Info : Audio Coding 3
Mode extension : CM (complete main)
Format settings, Endianness : Big
Codec ID : 2000
Duration : 1h 40mn
Bit rate mode : Constant
Bit rate : 192 Kbps
Channel(s) : 2 channels
Channel positions : Front: L R
Sampling rate : 48.0 KHz
Bit depth : 16 bits
Compression mode : Lossy
Stream size : 138 MiB (9%)
Alignment : Split accross interleaves
Interleave, duration : 40 ms (1.00 video frame)
Interleave, preload duration : 500 ms
Скриншоты:
         
         
Время раздачи: с 10:00 до 24:00
Вне форума [Профиль] [ЛС]
Похожие темы
Форум Тема Автор Торрент Отв. Посл. сообщение
./templates/default/images/folder_dl.gif Аудиокниги на иностранных языках [испанский] Fernando Marías - Esta noche moriré / Фернандо Мариас - Вечером я умру [Fernando Diaz, 2012 г., M4A, 34 kbps] Omen
1 | 0

0 | 403

5

2014-08-07 20:02
Omen Последнее
./templates/default/images/folder_dl.gif Аудиокниги на иностранных языках [Испанский] Márquez Gabriel García / Маркес Габриэль Гарсиа - Cien años de soledad / Сто лет одиночества [Gustavo Bonfigli, 2015 г., MP3, 80 kbps] Omen
1 | 0

0 | 1382

5

2015-05-20 00:19
Omen Последнее
Показать сообщения:    
Ответить на тему

Текущее время: Сегодня 20:24

Часовой пояс: GMT + 3



Вы не можете начинать темы
Вы не можете отвечать на сообщения
Вы не можете редактировать свои сообщения
Вы не можете удалять свои сообщения
Вы не можете голосовать в опросах
Вы не можете прикреплять файлы к сообщениям
Вы не можете скачивать файлы