Сегодня идет свободное скачивание без начисления Download

Звуковой барьер / The Sound Barrier (1952) DVDRip

Ответить на тему
 
Автор
Сообщение

Omen ®

Стаж: 4 года 1 месяц

Сообщений: 194359

Торрент-статистика

Пост 28-Янв-2013 01:04

[Цитировать]

-Звуковой барьер / The Sound Barrier (1952) DVDRip- Русское название: Звуковой барьер
Оригинальное название: The Sound Barrier
Год выпуска: 1952
Жанр: Военный, Драма
Описание фильма:
Томми, лётчик-ас женится по любви на Сью, дочери владельца крупного авиационного завода Джона Риджфильда. Риджфильд одержим идеей создания реактивного самолёта, способного достичь скорости звука и преодолеть звуковой барьер. После войны Томи устраивается на работу в фирму тестя лётчиком-испытателем...
Режиссер: Дэвид Лин
Актеры: Ральф Ричардсон, Энн Тодд, Найджел Патрик, Джон Джастин, Дина Шеридан, Джозеф Томелти, Денхолм Эллиот
Дополнительная информация: DVDRip by alf62
Большое СПАСИБО за работу над фильмом целому коллективу:
Busiko – за русские субтитры
Алексею Наследникову (MrRose) – за озвучку по субтитрам
За финансовое содействие по озвучке: умелец54, Der eiserne Wolf, oas2012, ZeDOK, gerald.shteinberg, Arias, alinto, Simpun, palmeiras, Бурый Иван, farivan, будулайроманов
Нордер - наложение чистого голоса на оригинальную дорогу
За первоисточник DVD – alinto:
Продолжительность: 01:51:41
Перевод: Одноголосый закадровый
Автор перевода: Алексей Наследников (MrRose)
Язык субтитров: Русский
Вид субтитров: Отдельным файлом

Награды: Оскар, 1953 год
Победитель (1):
* Лучший звук
Номинации (1):
* Лучший сценарий
Британская академия, 1953 год
Победитель (3):
* Лучший фильм
* Лучший британский актер (Ральф Ричардсон)
* Лучший британский фильм
Номинации (2):
* Лучший британский актер (Найджел Патрик)
* Лучшая британская актриса (Энн Тодд)Видеокодек: DivX 5
Битрейт видео: ~1628 Кбит/с
Размер кадра: 704x528
Качество видео: DVDRip
Аудиокодек: AC3
Битрейт аудио: 192 Кбит/с
Сэмпл: Ссылка
MediaInfo: Format : AVI
Format/Info : Audio Video Interleave
File size : 1.42 GiB
Duration : 1h 51mn
Overall bit rate : 1 826 Kbps
Writing application : VirtualDubMod 1.5.10.3 | www.virtualdub-fr.org || (build 2550/release)
Writing library : VirtualDubMod build 2550/release
Video
ID : 0
Format : MPEG-4 Visual
Format profile : Advanced [email protected]
Format settings, BVOP : 2
Format settings, QPel : No
Format settings, GMC : No warppoints
Format settings, Matrix : Default (MPEG)
Codec ID : DX50
Codec ID/Hint : DivX 5
Duration : 1h 51mn
Bit rate : 1 625 Kbps
Width : 704 pixels
Height : 528 pixels
Display aspect ratio : 4:3
Frame rate : 25.000 fps
Color space : YUV
Chroma subsampling : 4:2:0
Bit depth : 8 bits
Scan type : Progressive
Compression mode : Lossy
Bits/(Pixel*Frame) : 0.175
Stream size : 1.27 GiB (89%)
Writing library : XviD 64
Audio
ID : 1
Format : AC-3
Format/Info : Audio Coding 3
Mode extension : CM (complete main)
Format settings, Endianness : Big
Codec ID : 2000
Duration : 1h 51mn
Bit rate mode : Constant
Bit rate : 192 Kbps
Channel(s) : 2 channels
Channel positions : Front: L R
Sampling rate : 48.0 KHz
Bit depth : 16 bits
Compression mode : Lossy
Stream size : 153 MiB (11%)
Alignment : Split accross interleaves
Interleave, duration : 40 ms (1.00 video frame)
Interleave, preload duration : 500 msСкриншоты:
         
         
Время раздачи: С 23:00 до 8:30
Вне форума [Профиль] [ЛС]
Похожие темы
Форум Тема Автор Торрент Отв. Посл. сообщение
./templates/default/images/folder_dl.gif Обучающая и научно-популярная литература Ю.И. Козюренко | Звукозапись с микрофона (2010) [MP3] UndegraundMen
0 | 1

0 | 351

0

2013-12-28 23:02
UndegraundMen Последнее
Показать сообщения:    
Ответить на тему

Текущее время: Сегодня 10:56

Часовой пояс: GMT + 3



Вы не можете начинать темы
Вы не можете отвечать на сообщения
Вы не можете редактировать свои сообщения
Вы не можете удалять свои сообщения
Вы не можете голосовать в опросах
Вы не можете прикреплять файлы к сообщениям
Вы не можете скачивать файлы