Сегодня идет свободное скачивание без начисления Download

Премьера / Opening Night (1977) HDRip

Ответить на тему
 
Автор
Сообщение

Omen ®

Стаж: 4 года 1 месяц

Сообщений: 194382

Торрент-статистика

Пост 28-Янв-2013 23:16

[Цитировать]

-Премьера / Opening Night (1977) HDRip- Русское название: Премьера
Оригинальное название: Opening Night
Год выпуска: 1977
Производство: США, Faces Distribution
Жанр: Драма
Перевод: Профессиональный многоголосый, авторский одноголосый
Субтитры: Отсутствуют
Режиссер: Джон Кассаветис
Сценарий: Джон Кассаветис
Актеры: Джина Роулэндс, Питер Фальк, Джон Кассаветис, Питер Богданович, Сеймур Кэссел, Джоан Блонделл, Бен Газзара, Джон Финнегэн, Зора Ламперт, Лаура Джонсон, Пол Стюарт, Рэй Пауэрс
Описание фильма:
Бродвейская звезда Миртл Гордон впадает в глубочайшую депрессию, став свидетельницей гибели своей поклонницы. Ее начинает преследовать призрак девушки. Не в силах избавиться от видений, Миртл начинает сильно пить. Ее странное поведение грозит сорвать премьеру новой пьесы.
Миртл продолжает ходить на репетиции, но агрессивно сопротивляется режиссерской трактовке пьесы. Несмотря ни на что премьера состоялась. Представление за представлением, переосмысливая свою роль и импровизируя на сцене, Миртл начинает обретать внутреннее равновесие.-
Дата мировой премьеры: 22 декабря 1977
Дата выхода DVD релиза: 25 июня 2009, «Настроение Video»-Продолжительность: 02:24:14
Качество видео: HDRip
Видеокодек: XviD
Битрейт видео: 1645 Кбит/сек
Размер кадра: 704x384
Аудио 1: Русский, MP3, 2 ch, 128 Кбит/с Профессиональный многоголосый (ТГК Культура)
Аудио 2: Русский, AC3, 2 ch, 192 Кбит/с Авторский одноголосый (Кузнецов)
Аудио 3: Английский, AC3, 1 ch, 192 Кбит/с

MediaInfo

Код:
Общее
Полное имя                               : E:\Раздачи\Видео\Премьера (1977) HDRip.avi
Формат                                   : AVI
Формат/Информация                        : Audio Video Interleave
Размер файла                             : 2,19 Гбайт
Продолжительность                        : 2 ч. 24 м.
Общий поток                              : 2175 Кбит/сек
Программа кодирования                    : VirtualDubModRus 1.5.10.2 (build 2542/release)
Библиотека кодирования                   : VirtualDubMod build 2542/release
Видео
Идентификатор                            : 0
Формат                                   : MPEG-4 Visual
Профиль формата                          : Advanced [email protected]
Параметр BVOP формата                    : 2
Параметр QPel формата                    : Нет
Параметр GMC формата                     : Без точки перехода
Параметр матрицы формата                 : Default (MPEG)
Идентификатор кодека                     : XVID
Идентификатор кодека/Подсказка           : XviD
Продолжительность                        : 2 ч. 24 м.
Битрейт                                  : 1645 Кбит/сек
Ширина                                   : 704 пикселя
Высота                                   : 384 пикселя
Соотношение сторон                       : 1,85:1
Частота кадров                           : 23,976 кадра/сек
Цветовое пространство                    : YUV
Субдискретизация насыщенности            : 4:2:0
Битовая глубина                          : 8 бит
Тип развёртки                            : Прогрессивная
Метод сжатия                             : С потерями
Бит/(Пиксели*Кадры)                      : 0.254
Размер потока                            : 1,66 Гбайт (76%)
Библиотека кодирования                   : XviD 65
Аудио #1
Идентификатор                            : 1
Формат                                   : MPEG Audio
Версия формата                           : Version 1
Профиль формата                          : Layer 3
Режим                                    : Joint stereo
Идентификатор кодека                     : 55
Идентификатор кодека/Подсказка           : MP3
Продолжительность                        : 2 ч. 24 м.
Вид битрейта                             : Постоянный
Битрейт                                  : 128 Кбит/сек
Каналы                                   : 2 канала
Частота                                  : 48,0 КГц
Метод сжатия                             : С потерями
Размер потока                            : 132 Мбайт (6%)
Выравнивание                             : Соединение по промежуткам
Продолжительность промежутка             : 42  мс. (1,00 видеокадр)
Время предзагрузки промежутка            : 504  мс.
Аудио #2
Идентификатор                            : 2
Формат                                   : AC-3
Формат/Информация                        : Audio Coding 3
Расширение режима                        : CM (complete main)
Параметр Endianness формата              : Big
Идентификатор кодека                     : 2000
Продолжительность                        : 2 ч. 24 м.
Вид битрейта                             : Постоянный
Битрейт                                  : 192 Кбит/сек
Каналы                                   : 2 канала
Расположение каналов                     : Front: L R
Частота                                  : 48,0 КГц
Битовая глубина                          : 16 бит
Метод сжатия                             : С потерями
Задержка видео                           : 24 мс.
Размер потока                            : 198 Мбайт (9%)
Выравнивание                             : Разделение по промежуткам
Продолжительность промежутка             : 42  мс. (1,00 видеокадр)
Время предзагрузки промежутка            : 500  мс.
Аудио #3
Идентификатор                            : 3
Формат                                   : AC-3
Формат/Информация                        : Audio Coding 3
Расширение режима                        : CM (complete main)
Параметр Endianness формата              : Big
Идентификатор кодека                     : 2000
Продолжительность                        : 2 ч. 24 м.
Вид битрейта                             : Постоянный
Битрейт                                  : 192 Кбит/сек
Каналы                                   : 1 канал
Расположение каналов                     : Front: C
Частота                                  : 48,0 КГц
Битовая глубина                          : 16 бит
Метод сжатия                             : С потерями
Размер потока                            : 198 Мбайт (9%)
Выравнивание                             : Разделение по промежуткам
Продолжительность промежутка             : 42  мс. (1,00 видеокадр)
Время предзагрузки промежутка            : 500  мс.
Скриншоты:
         
         -Время раздачи: 9.00 - 23.00 (по мере возможности...)
Вне форума [Профиль] [ЛС]
Похожие темы
Форум Тема Автор Торрент Отв. Посл. сообщение
./templates/default/images/folder_dl.gif Зарубежное кино Криминальное чтиво / Pulp Fiction (Квентин Тарантино / Quentin Tarantino) [1994, США, триллер, комедия, криминал, BDRip 1080p] Dub (Miramax) + 4xMVO (West Video, НТВ, ОРТ, Премьер) + 4xAVO (Пучков, Гаврилов, Живов, Горчаков) + 2xUkr + Orig + subs Omen
2 | 0

0 | 192

3

2014-03-18 05:33
Omen Последнее
./templates/default/images/folder_dl.gif Фильмы до 2000 года Криминальное чтиво / Pulp Fiction (Квентин Тарантино / Quentin Tarantino) [1994, Триллер, комедия, криминал, BDRip] [MVO] (Премьер) + 3x[AVO] (А.Гаврилов, Кашкин, Ю.Живов) maxkiller
2 | 0

0 | 332

6

2015-03-05 12:56
maxkiller Последнее
./templates/default/images/folder_dl.gif Иностранные мультфильмы Балто 2: В поисках волка / Балто 2: Путешествие волка / Болто 2 / Balto: Wolf Quest / Balto 2: Travel of the Wolf (Фил Вейнштейн / Phil Weinstein) [2002, мультфильм, приключения, семейный, HDTVRip] Dub (Премьер Диджитал) + 2MVO Omen
1 | 0

0 | 240

4

2015-07-24 12:00
Omen Последнее
Показать сообщения:    
Ответить на тему

Текущее время: Сегодня 22:20

Часовой пояс: GMT + 3



Вы не можете начинать темы
Вы не можете отвечать на сообщения
Вы не можете редактировать свои сообщения
Вы не можете удалять свои сообщения
Вы не можете голосовать в опросах
Вы не можете прикреплять файлы к сообщениям
Вы не можете скачивать файлы