Сегодня идет свободное скачивание без начисления Download

Босиком по парку / Barefoot in the Park (1967) [H.264] DVDRip

Ответить на тему
 
Автор
Сообщение

Omen ®

Стаж: 4 года 1 месяц

Сообщений: 194382

Торрент-статистика

Пост 28-Янв-2013 23:16

[Цитировать]

-Босиком по парку / Barefoot in the Park (1967) [H.264] DVDRip-«Broadway's barest, rarest, unsquarest love play»- Русское название: Босиком по парку
Оригинальное название: Barefoot in the Park
Год выпуска: 1967
Жанр: Мелодрама, Комедия
Страна: США
Производство: Hal Wallis Productions, Nancy Enterprises Inc., Paramount Pictures
Описание фильма:
Пол и Кори Брэттер живут в маленькой квартирке на пятом этаже в районе Гринвич Виллидж. Она считает, что у них милый домик, а он, консервативный юрист, ненавидит свое жилье.
Буайе, образец француза и ловеласа в глазах американцев, играет слегка чокнутого бабника, живущего этажом выше, которому приходится проходить через их квартиру, чтобы попасть в свою. Романтичной Кори нравится старый «Казанова», и она устраивает ему знакомство со своей мамашей.
Возникает много комичных и трогательных осложнений. Пол, например, отказывает предложению супруги пойти гулять босиком в Центральный парк, когда на улице всего 17 градусов и идет дождь. Но любовь, конечно, побеждает все…
Режиссер: Джин Сакс
Сценарий: Нил Саймон
Продюсер: Пол Натан, Хэл Б. Уоллис, Джозеф Х. Хазен
Актеры: Роберт Редфорд, Джейн Фонда, Шарль Буайе, Милдред Нэтвик, Херб Эдельман, Мэйбл Альбертсон, Фриц Фельд, Джеймс Стоун, Тед Хартли, Билли Бёрд
Продолжительность: 01:41:40
Перевод: Многоголосый закадровый
Субтитры: Отсутствуют

Дата мировой премьеры: 25 мая 1967
Видеокодек: MPEG-4 AVC/H.264
Битрейт видео: ~2200 Кбит/сек
Размер кадра: 720x400
Качество видео: DVDRip
Аудиокодек: AC3 5 каналов
Битрейт аудио: 384 kbps

Реценция с кинопоиска от Vary:

Молодая супружеская пара прожив свои медовые шесть дней в отеле переселяется в квартиру. И тут перед супругами появляются первые трудности: квартира очень маленькая, без лифта, но на шестом этаже, в ней нет ванной, плохое отопление да еще и дырка в потолке. Но иначе и быть не могло, ведь нашла ее Кори (Джейн Фонда) — девушка летающая по миру, любящая авантюры и не думающая о завтрашнем дне.
Ее муж — начинающий адвокат (Роберт Редфорд), не вполне разделяет азарт жены от поездок в албанское кафе в другом конце города, ужина со странным соседом, который через их комнату поднимается к себе на чердак или идеи прогуляться по парку босиком в феврале месяце.
Все люди, по мнению Кори, делятся на «зрителей» (Пол) и «делателей» (она). Соединить таких непохожих людей может только любовь.
Фильм снят весело, динамично. Малое количество главных действующих лиц (Пол, Кори, ее мать и сосед Буайе), создает какую-то домашнюю атмосферу. Очень приятно смотреть на молодых Фонду и Редфорда.
Хорошая игра актеров. Иногда смеешься не столько с ситуации, сколько с выражения их лиц. Легкий, веселый фильм про любовь и компромис в браке. Я бы сказала, что снято просто, но со вкусом.

Награды:

Оскар, 1968 год
Номинации (1):
Лучшая женская роль второго плана (Милдред Нэтвик)
Британская академия, 1968 год
Номинации (1):
Лучшая иностранная актриса (Джейн Фонда)

MediaInfo:

Общее
Уникальный идентификатор : 212442491047065919690948796765414976796 (0x9FD2EF7CB77B15CA8D5ADB7E2B816D1C)
Полное имя : D:\Downloads\Босиком по парку.mkv
Формат : Matroska
Версия формата : Version 2
Размер файла : 1,84 Гбайт
Продолжительность : 1 ч. 41 м.
Общий поток : 2585 Кбит/сек
Дата кодирования : UTC 2013-01-24 09:56:32
Программа кодирования : mkvmerge v5.7.0 ('The Whirlwind') built on Jul 29 2012 15:12:35
Библиотека кодирования : libebml v1.2.3 + libmatroska v1.3.0
Видео
Идентификатор : 1
Формат : AVC
Формат/Информация : Advanced Video Codec
Профиль формата : [url=mailto:[email protected]][email protected][/url]
Параметр CABAC формата : Да
Параметр ReFrames формата : 8 кадров
Режим смешивания : Header stripping
Идентификатор кодека : V_MPEG4/ISO/AVC
Продолжительность : 1 ч. 41 м.
Битрейт : 2200 Кбит/сек
Ширина : 720 пикселей
Высота : 400 пикселей
Соотношение сторон : 16:9
Режим частоты кадров : Постоянный
Частота кадров : 25,000 кадров/сек
Цветовое пространство : YUV
Субдискретизация насыщенности : 4:2:0
Битовая глубина : 8 бит
Тип развёртки : Прогрессивная
Бит/(Пиксели*Кадры) : 0.306
Размер потока : 1,53 Гбайт (83%)
Заголовок : Barefoot in the Park
Библиотека кодирования : x264 core 129 r2230 1cffe9f
Настройки программы : cabac=1 / ref=8 / deblock=1:-1:-1 / analyse=0x3:0x133 / me=umh / subme=9 / psy=1 / psy_rd=1.00:0.15 / mixed_ref=1 / me_range=16 / chroma_me=1 / trellis=2 / 8x8dct=1 / cqm=0 / deadzone=21,11 / fast_pskip=1 / chroma_qp_offset=-3 / threads=3 / lookahead_threads=1 / sliced_threads=0 / nr=0 / decimate=1 / interlaced=0 / bluray_compat=0 / constrained_intra=0 / bframes=3 / b_pyramid=2 / b_adapt=2 / b_bias=0 / direct=3 / weightb=1 / open_gop=0 / weightp=2 / keyint=250 / keyint_min=25 / scenecut=40 / intra_refresh=0 / rc_lookahead=60 / rc=2pass / mbtree=1 / bitrate=2200 / ratetol=1.0 / qcomp=0.60 / qpmin=0 / qpmax=69 / qpstep=4 / cplxblur=20.0 / qblur=0.5 / ip_ratio=1.40 / aq=1:1.00
Язык : English
Default : Да
Forced : Нет
Аудио
Идентификатор : 2
Формат : AC-3
Формат/Информация : Audio Coding 3
Расширение режима : CM (complete main)
Параметр Endianness формата : Big
Режим смешивания : Header stripping
Идентификатор кодека : A_AC3
Продолжительность : 1 ч. 41 м.
Вид битрейта : Постоянный
Битрейт : 384 Кбит/сек
Каналы : 5 каналов
Расположение каналов : Front: L C R, Side: L R
Частота : 48,0 КГц
Битовая глубина : 16 бит
Метод сжатия : С потерями
Размер потока : 279 Мбайт (15%)
Заголовок : Многоголосый закадровый
Язык : Russian
Default : Да
Forced : Нет
Скриншоты:                    Время раздачи: с 12:00 до 24:00 по Москве (выходные круглосуточно), до 10 скачавших
Вне форума [Профиль] [ЛС]
Показать сообщения:    
Ответить на тему

Текущее время: Сегодня 20:24

Часовой пояс: GMT + 3



Вы не можете начинать темы
Вы не можете отвечать на сообщения
Вы не можете редактировать свои сообщения
Вы не можете удалять свои сообщения
Вы не можете голосовать в опросах
Вы не можете прикреплять файлы к сообщениям
Вы не можете скачивать файлы