Сегодня идет свободное скачивание без начисления Download

Где-то во времени / Somewhere in Time (1980) [720p] WEB-DL

Ответить на тему
 
Автор
Сообщение

Omen ®

Стаж: 4 года 1 месяц

Сообщений: 194394

Торрент-статистика

Пост 28-Янв-2013 23:16

[Цитировать]

- Где-то во времени / Somewhere in Time (1980) [720p] WEB-DL
- «Some day in the past, he will find her.» - Название: Где-то во времени
Оригинальное название: Somewhere in Time
Год выпуска: 1980
Жанр: Фэнтези, драма, мелодрама
Выпущено: США, Rastar Pictures
Описание фильма:
Молодой Чикагский драматург Ричард неожиданно получает от неизвестной пожилой дамы старинные часы и призыв «Вернись ко мне», но не придаёт этому никакого значения. Через несколько лет он случайно находит фотографию актрисы Элис МакКена сделанную в 1912 году и понимает, что это именно та женщина от которой восемь лет назад он получил часы. Используя теорию о путешествиях во времени посредством самогипноза, Ричард встречается с ней лицом к лицу...
Режиссер: Жаннот Шварц
В ролях: Кристофер Рив, Джейн Сеймур, Кристофер Пламмер, Тереза Райт, Билл Эрвин, Джордж Восковек, Сьюзэн Френч, Джон Элвин, Эддра Гэйл, Одри Беннетт, Уильям Х. Мэйси, Лоуренс Ковен, Сьюзэн Багг, Кристи Майклс, Али Мэтисон, Джордж Уэндт, Стив Бумер, Пэт Биллингсли, Тед Лисс, Френсис И. Киф, Тейлор Уильямс, Норин Уолкер, Эванс Гизелли, Барбара Джованнини, Дон Франклин, Дэвид Халл, Пол Кук, Виктория Майклс, Уильям П. О’Хаган
Продолжительность: 01:43:26
Перевод: Многоголосый закадровый, Одноголосый закадровый
Субтитры: нет

Рейтинг MPAA: PG 13– лицам до 13 лет обязательное присутствие родителей!!!
Дата мировой премьеры: 3 октября 1980
Видеокодек: MPEG-4 AVC
Битрейт видео: ~ 4000 Кбит/с
Размер кадра: 1280x686
Качество видео: WEB-DL
Аудио:
1. AC3 Русский 2.0 / 48 kHz / 192 kbps (Многоголосый закадровый, ОРТ)
2. AC3 Русский 2.0 / 48 kHz / 192 kbps (Одноголосый закадровый, В.Белов)
3. AAC Английский 2.0 / 48 kHz / 160 kbps

Награды и номинации

Оскар, 1981 год
Номинации (1):
Лучшие костюмы
Золотой глобус, 1981 год
Номинации (1):
Лучший саундтрек
Сатурн, 1981 год
Победитель (3):
Лучший фэнтези-фильм
Лучшие костюмы
Лучшая музыка
Номинации (2):
Лучший актер (Кристофер Рив)
Лучшая актриса (Джейн Сеймур)

MediaInfo

Общее
Уникальный идентификатор : 201137379717310414126153896189141301616 (0x9751A6770053C0B68F3CDA3CAE05B970)
Полное имя : Somewhere.In.Time.1980.720p.WEB-DL.2xRUS.AC3.ENG.AAC2.0.H264-BS.mkv
Формат : Matroska
Версия формата : Version 4 / Version 2
Размер файла : 3,48 Гбайт
Продолжительность : 1 ч. 43 м.
Общий поток : 4814 Кбит/сек
Дата кодирования : UTC 2013-01-20 20:52:16
Программа кодирования : mkvmerge v6.0.0 ('Coming Up For Air') built on Jan 20 2013 09:52:00
Библиотека кодирования : libebml v1.3.0 + libmatroska v1.4.0
Видео
Идентификатор : 1
Формат : AVC
Формат/Информация : Advanced Video Codec
Профиль формата : [url=mailto:[email protected]][email protected][/url]
Параметр CABAC формата : Нет
Параметр ReFrames формата : 2 кадра
Идентификатор кодека : V_MPEG4/ISO/AVC
Продолжительность : 1 ч. 43 м.
Ширина : 1280 пикселей
Высота : 686 пикселей
Соотношение сторон : 1,85:1
Частота кадров : 23,976 кадра/сек
Цветовое пространство : YUV
Субдискретизация насыщенности : 4:2:0
Битовая глубина : 8 бит
Тип развёртки : Прогрессивная
Язык : English
Default : Да
Forced : Нет
Основные цвета : BT.709-5, BT.1361, IEC 61966-2-4, SMPTE RP177
Характеристики трансфера : BT.709-5, BT.1361
Коэффициенты матрицы : BT.709-5, BT.1361, IEC 61966-2-4 709, SMPTE RP177
Аудио #1
Идентификатор : 2
Формат : AC-3
Формат/Информация : Audio Coding 3
Расширение режима : CM (complete main)
Параметр Endianness формата : Big
Идентификатор кодека : A_AC3
Продолжительность : 1 ч. 43 м.
Вид битрейта : Постоянный
Битрейт : 192 Кбит/сек
Каналы : 2 канала
Расположение каналов : Front: L R
Частота : 48,0 КГц
Битовая глубина : 16 бит
Метод сжатия : С потерями
Размер потока : 142 Мбайт (4%)
Язык : Russian
Default : Да
Forced : Нет
Аудио #2
Идентификатор : 3
Формат : AC-3
Формат/Информация : Audio Coding 3
Расширение режима : CM (complete main)
Параметр Endianness формата : Big
Идентификатор кодека : A_AC3
Продолжительность : 1 ч. 43 м.
Вид битрейта : Постоянный
Битрейт : 192 Кбит/сек
Каналы : 2 канала
Расположение каналов : Front: L R
Частота : 48,0 КГц
Битовая глубина : 16 бит
Метод сжатия : С потерями
Размер потока : 142 Мбайт (4%)
Язык : Russian
Default : Нет
Forced : Нет
Аудио #3
Идентификатор : 4
Формат : AAC
Формат/Информация : Advanced Audio Codec
Профиль формата : LC
Идентификатор кодека : A_AAC
Продолжительность : 1 ч. 43 м.
Каналы : 2 канала
Расположение каналов : Front: L R
Частота : 48,0 КГц
Метод сжатия : С потерями
Язык : English
Default : Нет
Forced : Нет
Меню
00:00:00.000 : en:Opening Credits / Come Back To Me
00:04:16.000 : en:Grand Hotel
00:10:33.000 : en:A Face For The Ages
00:18:11.000 : en:A Haunting Melody
00:22:08.000 : en:Teaching Time Travel
00:25:53.000 : en:Historically Hysterical
00:33:00.000 : en:Ahead To The Past
00:37:51.000 : enesperately Seeking Elise
00:44:30.000 : en:Meeting Again - For The First Time
00:54:00.000 : en:The Bodyguard
00:59:40.000 : en:Making Up For Lost Time
01:11:49.000 : en:Theater Improv
01:17:20.000 : en:The Wrath Of Robinson
01:23:55.000 : en:Time For Love
01:31:34.000 : en:Back To The Future
01:38:05.000 : en:Heavenly Reunion / End Credits
Скриншоты:
-Раздача: 24/7-Не забываем говорить спасибо, Вам не сложно, а мне приятно)))
Прошу с раздачи не уходить! Скачал сам, дай и другим скачать!!!
Приятного просмотра)))
Вне форума [Профиль] [ЛС]
Показать сообщения:    
Ответить на тему

Текущее время: Сегодня 17:34

Часовой пояс: GMT + 3



Вы не можете начинать темы
Вы не можете отвечать на сообщения
Вы не можете редактировать свои сообщения
Вы не можете удалять свои сообщения
Вы не можете голосовать в опросах
Вы не можете прикреплять файлы к сообщениям
Вы не можете скачивать файлы