Сегодня идет свободное скачивание без начисления Download

Кабаре / Cabaret (1972) [1080p] BDRip

Ответить на тему
 
Автор
Сообщение

Omen ®

Стаж: 4 года 1 месяц

Сообщений: 194359

Торрент-статистика

Пост 28-Янв-2013 23:16

[Цитировать]

- Кабаре / Cabaret (1972) [1080p] BDRip
- «Life is a Cabaret» - Название: Кабаре
Оригинальное название: Cabaret
Год выпуска: 1972
Жанр: Драма, мелодрама
Выпущено: США, ABC Pictures Corporation, Allied Artists Pictures Corporation, Bavaria Film
Описание фильма:
Один из самых гениальных мюзиклов в истории мирового кинематографа. Действие фильма происходит в Берлине тридцатых годов прошлого века. В условиях фашистской Германии пытаются строить свои хрупкие взаимоотношения американская певица и молодой студент, дающий частные уроки богатой еврейке. Посмотрев один раз эту удивительную, поистине гениальную картину, невозможно забыть ни вульгарных певичек берлинского кабаре, ни церемониймейстера-конферансье, ни толсторожих, заливших брюхо пивом бюргеров, ни даже зеленый маникюр ноготков Салли, которую играет великая Лайза Миннелли. И ненавязчивое, на заднем плане, но от этого не менее жуткое, наползание "коричневой чумы" на Германию. Потрясающие музыкальные номера, ставшие классикой эстрадной музыки. Великолепнейший конферансье в исполнении Джоэла Грэя. Фильм, поставленный по мотивам одноименного бродвейского мюзикла, основанного на пьесе Джона Ван Друтена и сборнику рассказов Кристофера Ишервуда "Прощай, Берлин", заслуженно получил восемь "Оскаров". Танцы и музыкальные номера поставлены Бобом Фоссом.
Режиссер: Боб Фосс
В ролях: Лайза Миннелли, Джоэл Грэй, Майкл Йорк, Хельмут Грим, Фриц Веппер, Мариса Беренсон, Элизабет Ньюмен-Виртель, Хелен Вита, Сигрит фон Рихтхофен, Герд Весперманн, Ральф Уолтер, Георг Харманн, Рики Рене, Эстронго Нахама, Кэтрин Доби, Инге Джегер, Анжелика Кох, Хелен Велковорска, Гитта Шмидт, Луиз Куик
Продолжительность: 02:03:42
Перевод: Многоголосый закадровый, Одноголосый закадровый
Субтитры: Английские

Рейтинг MPAA: PG 13– лицам до 13 лет обязательное присутствие родителей!!!
Дата мировой премьеры: 13 февраля 1972
Видеокодек: MPEG-4 AVC
Битрейт видео: ~ 8613 Кбит/сек
Размер кадра: 1920х1080
Качество видео: BDRip
Аудио:
1. Dolby Digital Русский 2.0 / 48 kHz / 192 kbps (Многоголосый закадровый, Екатеринбург Арт)
2. Dolby Digital Русский 2.0 / 48 kHz / 192 kbps (Многоголосый закадровый)
3. Dolby Digital Русский 2.0 / 48 kHz / 192 kbps (Одноголосый закадровый, А. Михалёв)
4. Dolby Digital Русский 2.0 / 48 kHz / 192 kbps (Одноголосый закадровый, А. Гаврилов)
5. DTSРусский 5.1 / 48 kHz / 1510 kbps / 24 bit

Награды и номинации

Оскар, 1973 год
Победитель (8):
Лучшая женская роль (Лайза Миннелли)
Лучшая мужская роль второго плана (Джоэл Грей)
Лучший режиссер (Боб Фосси)
Лучшая работа оператора
Лучшие декорации
Лучший звук
Лучший монтаж
Лучшая музыкальная адаптация
Номинации (2):
Лучший фильм
Лучший адаптированный сценарий
Золотой глобус, 1973 год
Победитель (3):
Лучшая женская роль (комедия или мюзикл) (Лайза Миннелли)
Лучший фильм (комедия или мюзикл)
Лучшая мужская роль второго плана (Джоэл Грей)
Номинации (6):
Лучшая женская роль второго плана (Мариза Беренсон)
Лучший режиссер (Боб Фосси)
Лучший сценарий
Лучшая песня — «Money, Money»
Лучшая песня — «Mein Herr»
Самый многообещающий новичок среди женщин (Мариза Беренсон)
Британская академия, 1973 год
Победитель (7):
Лучший фильм
Лучшая женская роль (Лайза Миннелли)
Лучший режиссер (Боб Фосси)
Лучшая работа оператора
Лучшая работа художника
Лучший саундтрек
Лучший новичок (Джоэл Грей)
Номинации (4):
Лучшая женская роль второго плана (Мариза Беренсон)
Лучший сценарий
Лучшие костюмы
Лучший монтаж

Знаете ли вы, что...

• Первоначальный сценарий, сделанный известной писательницей и драматургом Джей Прессон Аллен, не устроил Фосси, и он нанял для переработки Хью Уилера. Правда, в титрах Уилер был указан лишь как консультант, тогда как сама Джей Прессон Аллен, значилась автором сценария. Фильм в большей степени основан на цикле рассказов Кристофера Ишервуда «Прощай, Берлин» и пьесе Джона ван Друтена «Я — Камера», нежели на сценической версии Джо Мастероффа.
• Известный театральный менеджер Сай Фойер реализовывал проект посредством студий «ABC Pictures» и «Allied Artists». Боб Фосси горел желанием занять режиссёрское кресло и предложил Фойеру свою кандидатуру. Однако, руководство студий предпочитало Джозефа Лео Манкевича или Джина Келли, так как предыдущий киномюзикл Фосси «Милая Чарити», снятый на основе ленты Федерико Феллини «Ночи Кабирии», провалился в прокате. Фойер всё-таки уговорил шефов взять именно Боба Фосси, сославшись на то, что в экранизации «Кабаре» основной акцент будет сделан не на сюжетных перипетиях, а на танцевальных номерах.
• Сай Фойер и Боб Фосси ездили в Германию, чтобы набрать там недостающую часть съёмочной группы. Фосси горячо рекомендовал Фойеру взять американского оператора Роберта Сартиса. Но Фойер, недовольный тем, как Сартис снял «Милую Чарити», пригласил для съёмок британца Джеффри Ансуорта.
• Лайза Миннелли и Джоэл Грей были утверждены на роли задолго до того, как в проект пришёл Боб Фосси. Ранее Миннелли было отказано сыграть Салли Боулз в театральной постановке, в отличие от Джоэла Грея, который в фильме исполнил ту же роль, что и на Бродвее. Майкл Йорк был приглашён режиссёром лично. Актёров для эпизодических ролей, а также танцоров было решено набрать в Германии.
• Кинофильм во многом отличается от театральной постановки. Так, главный герой был переименован из американца Клиффа Брэдшо в англичанина Брайана Робертса, однако, мотив бисексуальности персонажа остался и в картине. Фрица, Натальи и Макса в бродвейском мюзикле не было, хотя в спектакле имелся второстепенный персонаж по имени Макс — владелец клуба «Кит Кэт», — который в картине отсутствует. Фосси не стал использовать многие песни, звучавшие в мюзикле, кроме тех, что исполнялись непосредственно на сцене клуба. Исключением стала «Tomorrow Belongs to Me» («Завтра принадлежит мне»), которую герои слушают в ресторанчике под открытым небом и имеющую важную смысловую нагрузку. Специально для фильма композитор Джон Кэндер и поэт Фред Эбб написали композиции «Money, Money» («Деньги, деньги, деньги») и «Mein Herr» («Мой господин»), которые оказались столь популярны, что впоследствии их было решено включить в театральную версию.
• На DVD «Кабаре» впервые вышло в 1998 году. Позже были переиздания в 2003 и 2008 г. г.

MediaInfo

Общее
Уникальный идентификатор : 213545006768246003723515972051194186954 (0xA0A745B583962B8BACAF7FB45AC18CCA)
Полное имя : D:\Торренты\Kabare.1972.x264.BDRip.(1080p).mkv
Формат : Matroska
Версия формата : Version 2
Размер файла : 9,41 Гбайт
Продолжительность : 2 ч. 3 м.
Общий поток : 10,9 Мбит/сек
Дата кодирования : UTC 2013-01-23 22:01:12
Программа кодирования : mkvmerge v5.6.0 ('Kenya Kane') built on May 27 2012 16:44:04
Библиотека кодирования : libebml v1.2.3 + libmatroska v1.3.0
Видео
Идентификатор : 1
Формат : AVC
Формат/Информация : Advanced Video Codec
Профиль формата : [url=mailto:[email protected]][email protected][/url]
Параметр CABAC формата : Да
Параметр ReFrames формата : 4 кадра
Идентификатор кодека : V_MPEG4/ISO/AVC
Продолжительность : 2 ч. 3 м.
Битрейт : 8613 Кбит/сек
Ширина : 1920 пикселей
Высота : 1080 пикселей
Соотношение сторон : 16:9
Частота кадров : 23,976 кадра/сек
Цветовое пространство : YUV
Субдискретизация насыщенности : 4:2:0
Битовая глубина : 8 бит
Тип развёртки : Прогрессивная
Бит/(Пиксели*Кадры) : 0.173
Размер потока : 7,25 Гбайт (77%)
Библиотека кодирования : x264 core 129 r2245 bc13772
Настройки программы : cabac=1 / ref=4 / deblock=1:0:0 / analyse=0x3:0x133 / me=umh / subme=7 / psy=1 / psy_rd=1.00:0.00 / mixed_ref=1 / me_range=16 / chroma_me=1 / trellis=1 / 8x8dct=1 / cqm=0 / deadzone=21,11 / fast_pskip=0 / chroma_qp_offset=-2 / threads=12 / lookahead_threads=2 / sliced_threads=0 / nr=0 / decimate=1 / interlaced=0 / bluray_compat=0 / constrained_intra=0 / bframes=3 / b_pyramid=2 / b_adapt=1 / b_bias=0 / direct=1 / weightb=1 / open_gop=0 / weightp=2 / keyint=250 / keyint_min=23 / scenecut=40 / intra_refresh=0 / rc_lookahead=40 / rc=2pass / mbtree=1 / bitrate=8613 / ratetol=1.0 / qcomp=0.60 / qpmin=0 / qpmax=69 / qpstep=4 / cplxblur=20.0 / qblur=0.5 / ip_ratio=1.40 / aq=1:1.00
Язык : English
Default : Да
Forced : Нет
Аудио #1
Идентификатор : 2
Формат : AC-3
Формат/Информация : Audio Coding 3
Расширение режима : CM (complete main)
Параметр Endianness формата : Big
Идентификатор кодека : A_AC3
Продолжительность : 2 ч. 3 м.
Вид битрейта : Постоянный
Битрейт : 192 Кбит/сек
Каналы : 2 канала
Расположение каналов : Front: L R
Частота : 48,0 КГц
Битовая глубина : 16 бит
Метод сжатия : С потерями
Размер потока : 170 Мбайт (2%)
Заголовок : Профессиональный (многоголосый, закадровый)
Язык : Russian
Default : Нет
Forced : Нет
Аудио #2
Идентификатор : 3
Формат : AC-3
Формат/Информация : Audio Coding 3
Расширение режима : CM (complete main)
Параметр Endianness формата : Big
Идентификатор кодека : A_AC3
Продолжительность : 2 ч. 3 м.
Вид битрейта : Постоянный
Битрейт : 192 Кбит/сек
Каналы : 2 канала
Расположение каналов : Front: L R
Частота : 48,0 КГц
Битовая глубина : 16 бит
Метод сжатия : С потерями
Размер потока : 170 Мбайт (2%)
Заголовок : Профессиональный (многоголосый, закадровый)
Язык : Russian
Default : Нет
Forced : Нет
Аудио #3
Идентификатор : 4
Формат : AC-3
Формат/Информация : Audio Coding 3
Расширение режима : CM (complete main)
Параметр Endianness формата : Big
Идентификатор кодека : A_AC3
Продолжительность : 2 ч. 3 м.
Вид битрейта : Постоянный
Битрейт : 192 Кбит/сек
Каналы : 2 канала
Расположение каналов : Front: L R
Частота : 48,0 КГц
Битовая глубина : 16 бит
Метод сжатия : С потерями
Размер потока : 170 Мбайт (2%)
Заголовок : Авторский (одноголосый, закадровый) (Алексей Михалев)
Язык : Russian
Default : Нет
Forced : Нет
Аудио #4
Идентификатор : 5
Формат : AC-3
Формат/Информация : Audio Coding 3
Расширение режима : CM (complete main)
Параметр Endianness формата : Big
Идентификатор кодека : A_AC3
Продолжительность : 2 ч. 3 м.
Вид битрейта : Постоянный
Битрейт : 192 Кбит/сек
Каналы : 2 канала
Расположение каналов : Front: L R
Частота : 48,0 КГц
Битовая глубина : 16 бит
Метод сжатия : С потерями
Размер потока : 170 Мбайт (2%)
Заголовок : Авторский (одноголосый, закадровый) (Андрей Гаврилов)
Язык : Russian
Default : Нет
Forced : Нет
Аудио #5
Идентификатор : 6
Формат : DTS
Формат/Информация : Digital Theater Systems
Идентификатор кодека : A_DTS
Продолжительность : 2 ч. 3 м.
Вид битрейта : Постоянный
Битрейт : 1510 Кбит/сек
Каналы : 6 каналов
Расположение каналов : Front: L C R, Side: L R, LFE
Частота : 48,0 КГц
Битовая глубина : 24 бит
Метод сжатия : С потерями
Размер потока : 1,30 Гбайт (14%)
Заголовок : Оригинал (английский)
Язык : English
Default : Нет
Forced : Нет
Текст
Идентификатор : 7
Формат : UTF-8
Идентификатор кодека : S_TEXT/UTF8
Идентификатор кодека/Информация : UTF-8 Plain Text
Заголовок : Английские
Язык : English
Default : Нет
Forced : Нет
Меню
00:00:00.000 : en:00:00:00.000
00:09:33.490 : en:00:09:33.490
00:20:30.855 : en:00:20:30.855
00:30:39.921 : en:00:30:39.921
00:39:37.458 : en:00:39:37.458
00:50:16.347 : en:00:50:16.347
01:00:14.861 : en:01:00:14.861
01:09:39.550 : en:01:09:39.550
01:21:22.086 : en:01:21:22.086
01:29:39.332 : en:01:29:39.332
01:41:09.397 : en:01:41:09.397
01:49:30.647 : en:01:49:30.647
02:01:51.763 : en:02:01:51.763
Скриншоты:
-Раздача: 24/7-Не забываем говорить спасибо, Вам не сложно, а мне приятно)))
Прошу с раздачи не уходить! Скачал сам, дай и другим скачать!!!
Приятного просмотра)))
Вне форума [Профиль] [ЛС]
Показать сообщения:    
Ответить на тему

Текущее время: Сегодня 14:48

Часовой пояс: GMT + 3



Вы не можете начинать темы
Вы не можете отвечать на сообщения
Вы не можете редактировать свои сообщения
Вы не можете удалять свои сообщения
Вы не можете голосовать в опросах
Вы не можете прикреплять файлы к сообщениям
Вы не можете скачивать файлы