Сегодня идет свободное скачивание без начисления Download

Цыган / Le gitan (1975) [H.264] DVDRip

Ответить на тему
 
Автор
Сообщение

Omen ®

Стаж: 4 года 1 месяц

Сообщений: 194394

Торрент-статистика

Пост 29-Янв-2013 13:16

[Цитировать]

-Цыган / Le gitan (1975) [H.264] DVDRip- Русское название: Цыган
Оригинальное название: Le gitan
Год выпуска: 1975
Жанр: Драма, Криминал
Страна: Франция, Италия
Производство: Adel Productions, Lira Films, Mondial Televisione Film
Описание фильма:
Хьюго Сеннарт, французский цыган, разыскивается полицией за кражу. Инспектор, расследующий это дело, также ищет похитившего драгоценности Яна Кука, чья жена умерла при довольно странных обстоятельствах, сразу после кражи. Цыгану нужно свести пару счетов и сделать ещё одно небольшое дело, прежде чем уйти в тень. Случайно, его путь пересекается с Яном, который скрывается в отеле своей бывшей любовницы Нини. Хьюго живёт по кодексу чести, что иногда заставляет его рисковать, потому что он ненавидит тех, кто относится к людям хуже, чем к собакам. Полиция уже близко. Существует ли честь у воров?
Режиссер: Жозе Джованни
Сценарий: Жозе Джованни
Продюсер: Раймон Данон, Ален Делон
Актеры: Ален Делон, Пол Мёрисс, Анни Жирардо, Марсель Боззюффи, Бернар Жиродо, Ренато Сальватори, Морис Барье, Морис Биро, Ник Фогель, Мишель Фортен
Продолжительность: 01:38:12
Перевод: Двуголосый закадровый
Субтитры: Отсутствуют

Дата мировой премьеры: 5 декабря 1975
Видеокодек: MPEG-4 AVC/H.264
Битрейт видео: ~2200 Кбит/сек
Размер кадра: 720x416
Качество видео: DVDRip
Аудиокодек: AC3 2.0
Битрейт аудио: 192 kbps

Реценция с кинопоиска от Elizabethv:

Мне очень понравился этот фильм, хотя чему я удивляюсь, Ален Делон всегда снимался в хорошем кино!
«Цыган»… могу сравнить эту актерскую работу Алена Делона только с его работой в фильме «Первая ночь покоя». Чем-то они похожи, оба эти фильма.
Удивило не совпадение описания фильма на сайте и собственно сюжета фильма. В описании написано «Даже среди «своих» он чувствует свою избранность, свое одиночество, однако, когда Уго встречает женщину, близкую ему по духу, все меняется… Совместимы ли желание любить и стремление оставаться свободным..?». Скажу честно — эти слова и заставили меня обратить внимание на фильм «Совместимы ли желание любить и стремление оставаться свободным..?».
Фильм о свободе, да, о любви к свободе, но не к женщине. Цыган Алена Делона это человек, который болеет душой за судьбу своего народа. Цыганам, как и евреям нигде нет места, оба народа гонимы и презренны людьми сытыми — слишком сытыми, для того, чтобы узреть чужой голод во всех смыслах этого слова.
Цыган человек чести, хотя и в своем понимании этого слова. Он благороден — Ален Делон часто играл роли волков одиночек, и мне кажется, что он тоже часто спрашивал себя, возможно ли жить свободным в этом мире? От чего свободным? От людей, которые привыкли подчиняться и ждут, что им тоже станут подчиняться…
Но есть те, кто не хочет подчиняться! Не хочет жить в сытом обществе! Их жизнь это дорога, они все время видят что-то новое, узнают новых людей… И таких людей — свободных духом сейчас не мало, в СМИ постоянно рассказывают о том, как кто-то бросил все и ушел жить в лес, уехал, убежал… Мы, люди рождаемся одинокими, да, но еще и свободными, но мы почему-то забыли об этом. Мы так привыкли к тому, что нашу свободу ограничивают, что тоже начинаем ограничивать свободу ближних своих! Мы начинаем думать, что они принадлежат нам, но каждый человек принадлежит только себе…
Отличное кино!

MediaInfo:

Общее
Уникальный идентификатор : 198724482937683676214834321947296031912 (0x9580F177FF2CE140A85842AFFFFC64A8)
Полное имя : D:\Downloads\Цыган.mkv
Формат : Matroska
Версия формата : Version 2
Размер файла : 1,64 Гбайт
Продолжительность : 1 ч. 38 м.
Общий поток : 2393 Кбит/сек
Дата кодирования : UTC 2013-01-27 20:40:02
Программа кодирования : mkvmerge v5.7.0 ('The Whirlwind') built on Jul 29 2012 15:12:35
Библиотека кодирования : libebml v1.2.3 + libmatroska v1.3.0
Видео
Идентификатор : 1
Формат : AVC
Формат/Информация : Advanced Video Codec
Профиль формата : [url=mailto:[email protected]][email protected][/url]
Параметр CABAC формата : Да
Параметр ReFrames формата : 8 кадров
Режим смешивания : Header stripping
Идентификатор кодека : V_MPEG4/ISO/AVC
Продолжительность : 1 ч. 38 м.
Битрейт : 2200 Кбит/сек
Ширина : 720 пикселей
Высота : 416 пикселей
Соотношение сторон : 1,731
Режим частоты кадров : Постоянный
Частота кадров : 25,000 кадров/сек
Цветовое пространство : YUV
Субдискретизация насыщенности : 4:2:0
Битовая глубина : 8 бит
Тип развёртки : Прогрессивная
Бит/(Пиксели*Кадры) : 0.294
Размер потока : 1,48 Гбайт (90%)
Заголовок : Le Gitan
Библиотека кодирования : x264 core 129 r2230 1cffe9f
Настройки программы : cabac=1 / ref=8 / deblock=1:-1:-1 / analyse=0x3:0x133 / me=umh / subme=9 / psy=1 / psy_rd=1.00:0.15 / mixed_ref=1 / me_range=16 / chroma_me=1 / trellis=2 / 8x8dct=1 / cqm=0 / deadzone=21,11 / fast_pskip=1 / chroma_qp_offset=-3 / threads=3 / lookahead_threads=1 / sliced_threads=0 / nr=0 / decimate=1 / interlaced=0 / bluray_compat=0 / constrained_intra=0 / bframes=3 / b_pyramid=2 / b_adapt=2 / b_bias=0 / direct=3 / weightb=1 / open_gop=0 / weightp=2 / keyint=250 / keyint_min=25 / scenecut=40 / intra_refresh=0 / rc_lookahead=60 / rc=2pass / mbtree=1 / bitrate=2200 / ratetol=1.0 / qcomp=0.60 / qpmin=0 / qpmax=69 / qpstep=4 / cplxblur=20.0 / qblur=0.5 / ip_ratio=1.40 / aq=1:1.00
Язык : French
Default : Да
Forced : Нет
Аудио
Идентификатор : 2
Формат : AC-3
Формат/Информация : Audio Coding 3
Расширение режима : CM (complete main)
Параметр Endianness формата : Big
Режим смешивания : Header stripping
Идентификатор кодека : A_AC3
Продолжительность : 1 ч. 38 м.
Вид битрейта : Постоянный
Битрейт : 192 Кбит/сек
Каналы : 2 канала
Расположение каналов : Front: L R
Частота : 48,0 КГц
Битовая глубина : 16 бит
Метод сжатия : С потерями
Размер потока : 135 Мбайт (8%)
Заголовок : Профессиональный двухголосый
Язык : Russian
Default : Да
Forced : Нет
Скриншоты:                    
Вне форума [Профиль] [ЛС]
Показать сообщения:    
Ответить на тему

Текущее время: Сегодня 22:52

Часовой пояс: GMT + 3



Вы не можете начинать темы
Вы не можете отвечать на сообщения
Вы не можете редактировать свои сообщения
Вы не можете удалять свои сообщения
Вы не можете голосовать в опросах
Вы не можете прикреплять файлы к сообщениям
Вы не можете скачивать файлы