Сегодня идет свободное скачивание без начисления Download

Хладнокровный Люк / Cool Hand Luke (1967) [1080p] BDRip

Ответить на тему
 
Автор
Сообщение

Omen ®

Стаж: 4 года 1 месяц

Сообщений: 194394

Торрент-статистика

Пост 30-Янв-2013 00:56

[Цитировать]

- Хладнокровный Люк / Cool Hand Luke (1967) [1080p] BDRip
- «'What we've got here is failure to communicate.'» - Название: Хладнокровный Люк
Оригинальное название: Cool Hand Luke
Год выпуска: 1967
Жанр: Драма, криминал,
Выпущено: США, Jalem Productions
Описание фильма:
Однажды ночью Люк, выпив, решил развлечься и свинтил газовым ключом дюжину монетоприемников на автостоянке, за что и получил два года ремонтно-строительных работ на дорогах в южных штатах. Еще во время войны он много раз испытывал свою судьбу на прочность, и тюрьма стала очередной проверкой, которую Люк, похоже, и искал… За свой упрямый и упорный характер Люк получил от сокамерников уважительное прозвище Люк Хладнокровный, а с ним и ненависть надзирателей лагеря за стремление к свободе и непокорный нрав. Три побега, три ареста и три жестоких наказания не сломили его волю к жизни, он стал героем для остальных заключенных, героем-одиночкой, поставившим себя против системы…
Режиссер: Стюарт Розенберг
В ролях: Пол Ньюман, Джордж Кеннеди, Дж.Д. Кэннон, Лу Антонио, Роберт Драйвэс, Строзер Мартин, Джо Ван Флит, Клифтон Джеймс, Морган Вудворд, Люк Эскью, Марк Кавелл, Ричард Давалос, Роберт Доннер, Уоррен Финнерти, Деннис Хоппер, Джон МакЛайэм, Уэйн Роджерс, Гарри Дин Стэнтон, Чарльз Тайнер, Ральф Уэйт, Энтони Зербе, Бак Карталян, Джой Хармон
Продолжительность: 02:06:35
Перевод: Двухголосый закадровый
Субтитры: Английские, Русские

Рейтинг MPAA: PG13– лицам до 13 лет обязательное присутствие родителей!!!
Дата мировой премьеры: 1 ноября 1967
Видеокодек: MPEG-4 AVC
Битрейт видео: ~ 7678 Кбит/сек
Размер кадра: 1920х800
Качество видео: BDRip
Аудио:
1. Dolby Digital Русский 2.0 / 48 kHz / 192 kbps (Двухголосый закадровый, НТВ+)
2. Dolby Digital Русский 2.0 / 48 kHz / 192 kbps (Двухголосый закадровый, CP Digital)
3. Dolby Digital Английский 1.0 / 48 kHz / 192 kbps
4. Dolby Digital Английский 1.0 / 48 kHz / 192 kbps (Комментарии)

Награды и номинации

Оскар, 1968 год
Победитель:
Лучшая мужская роль второго плана (Джордж Кеннеди)
Номинации:
Лучшая мужская роль (Пол Ньюман)
Лучший адаптированный сценарий
Лучший саундтрек
Золотой глобус, 1968 год
Номинации:
Лучшая мужская роль (драма) (Пол Ньюман)
Лучшая мужская роль второго плана (Джордж Кеннеди)

Из книги «3500 кинорецензий»

Бунтарь без причины
Фильмы про бунтарей-одиночек, несогласных, или точнее не желающих жить по уставам современного общества, были популярны еще за долго до выхода «Хладнокровного Люка». Достаточно вспомнить нашумевшие ленты с Джеймсом Дином и Марлоном Брандо. Но, безусловно, самой яркой и общепризнанной картиной на подобную тематику стал «Cool Hand Luke», где одну из лучших своих ролей сыграл великолепный Пол Ньюман. Более того, у большинства зрителей именно образ прирожденного бунтаря Люка ассоциируется с типажом самого актера.
Что двигало им в ту ночь, когда в стельку пьяный, Люк «поотрезал головы» у парковочных счетчиков? Об этом мы можем лишь догадываться. Возможно, таким образом, он сводил с кем-то давние счеты, а может, просто хотел заявить о себе, продемонстрировать крутой нрав. Так или иначе — за порчу государственной собственности Люк приговаривается к двум годам тюремного заключения.
Но о содеянном наш герой, на мой взгляд, нисколько не жалеет. Авторы фильма изначально преподносят его как «бунтаря без причины», которому скучно «жить как все», скованными дюжинами тем, что называется «общественной системой». Для Люка «система» это всего лишь чья-то неудачная шутка, над которой можно легко посмеяться, смачно плюнув ее же создателям в лицо. Иначе как воспринимать тот факт, что человек отправившись на войну (какую именно нам не говорят) и дослужившись до сержанта, пускает все на самотек и уходит из армии, как пришел, простым рядовым. Это его нежелание быть героем и отрицание всякого иерархического порядка — первооснова в понимании образа Люка.
Надо сказать, что и в тюрьме он проделывает тот же путь. Сокамерники сразу замечают дерзкий нрав новичка, всегда держащегося особняком с гордо поднятой головой и еле уловимой ухмылкой на лице. Больше всего это бесит Дреглайна (в потрясающем исполнении удостоенного за эту роль Оскара Джорджа Кеннеди) — неофициального лидера заключенных, грозного здоровяка, который на самом деле прост и наивен как ребенок. Он решает сбить с главного героя снобизм и показать «кто в доме хозяин». Но быстро организованный кулачный поединок превращается в насмешку над ним же самим. Значительно превосходящий в весе Дреглайн мутузит худосочного Люка почем зря, но тот не сдается, демонстрируя оппоненту невероятную стойкость, когда, уступая во всем противнику, можно уповать лишь на собственную настырность и силу духа.
Следующий момент, где Люк одерживает победу в карты, не имея ни одного козыря на руках, еще больше доказывает то, что этот персонаж умеет сохранять «хорошую мину при плохой игре» («Иногда ничего может быть хорошим подспорьем»). Апофеозом в раскрытии образа Люка становится легендарная сцена с поеданием яиц — Люк на спор соглашается проглотить за 60 минут 50 вареных яиц. И при этом его не волнует, что существует опасность погибнуть от заворота кишечника — пари есть пари.
Хладнокровие Люка, его невероятная дерзость и умение повести за собой постепенно вызывают восхищение у остальных заключенных, и вот уже сам Дреглайн отходит на второй план — лидером зэков становится Люк. Казалось бы, идеальная ситуация: авторитет заработан, остался год с лишним, отсиживай и выходи — однако ж, нет, герой Ньюмана и тут находит неприятности на свою голову, а с известиями о смерти матери и вовсе «сходит с катушек», решаясь на свой первый тюремный побег…
К чести постановщика фильма Стюарта Розенберга, не ограничившегося одним лишь повествовательным механизмом, в картине находится место и для других не менее важных вопросов. В частности довольно любопытным образом затрагивается тема проникновения божественного гнева в судьбу главного героя. Не стесняясь в выражениях, Люк проклинает Всевышнего, называя того Тяжелым Случаем, и просит наслать на себя его кару. В ответ, естественно, получает лишь молчание, но в том, что Господь услышал его, не приходиться сомневаться — одна из финальных сцен тому доказательство («Все, что мы имеем здесь, так это непонимание»).
Однако первостепенной задачей Розенберга, конечно, было показать независимую личность, всеми силами стремящуюся к свободе во всех ее проявлениях, с чем, надо отдать должное, режиссер идеально справился. Образ Люка — это своеобразный гимн триумфу несгибаемой человеческой воли, и в тоже время наглядная демонстрация того, к чему, порой, это самое необузданное стремление к воле может привести.

MediaInfo

Общее
Уникальный идентификатор : 242974324631684923883152526795524065597 (0xB6CB271ACA6755F29EF3131306BCC93D)
Полное имя : E:\Video\Hladnokrovnyj.Ljuk.1967.x264.BDRip.1080p.mkv
Формат : Matroska
Версия формата : Version 4 / Version 2
Размер файла : 7,62 Гбайт
Продолжительность : 2 ч. 6 м.
Общий поток : 8617 Кбит/сек
Название фильма : Хладнокровный Люк / Cool Hand Luke / 1967 / BDRip -- STarankov
Дата кодирования : UTC 2010-02-22 21:41:31
Программа кодирования : mkvmerge v5.9.0 ('On The Loose') built on Dec 9 2012 15:37:01
Библиотека кодирования : libebml v1.3.0 + libmatroska v1.4.0
Видео
Идентификатор : 1
Формат : AVC
Формат/Информация : Advanced Video Codec
Профиль формата : [url=mailto:[email protected]][email protected][/url]
Параметр CABAC формата : Да
Параметр ReFrames формата : 4 кадра
Идентификатор кодека : V_MPEG4/ISO/AVC
Продолжительность : 2 ч. 6 м.
Битрейт : 7678 Кбит/сек
Ширина : 1920 пикселей
Высота : 800 пикселей
Соотношение сторон : 2,40:1
Режим частоты кадров : Постоянный
Частота кадров : 23,976 кадра/сек
Цветовое пространство : YUV
Субдискретизация насыщенности : 4:2:0
Битовая глубина : 8 бит
Тип развёртки : Прогрессивная
Бит/(Пиксели*Кадры) : 0.208
Размер потока : 6,79 Гбайт (89%)
Библиотека кодирования : x264 core 129 r2230 1cffe9f
Настройки программы : cabac=1 / ref=4 / deblock=1:-1:-1 / analyse=0x3:0x113 / me=umh / subme=9 / psy=1 / psy_rd=1.00:0.15 / mixed_ref=1 / me_range=24 / chroma_me=1 / trellis=2 / 8x8dct=1 / cqm=0 / deadzone=21,11 / fast_pskip=1 / chroma_qp_offset=-3 / threads=6 / lookahead_threads=1 / sliced_threads=0 / nr=0 / decimate=1 / interlaced=0 / bluray_compat=0 / constrained_intra=0 / bframes=8 / b_pyramid=2 / b_adapt=2 / b_bias=0 / direct=1 / weightb=1 / open_gop=0 / weightp=2 / keyint=230 / keyint_min=23 / scenecut=40 / intra_refresh=0 / rc=crf / mbtree=0 / crf=19.8 / qcomp=0.60 / qpmin=0 / qpmax=69 / qpstep=4 / ip_ratio=1.40 / pb_ratio=1.30 / aq=1:1.00
Язык : English
Default : Да
Forced : Нет
Аудио #1
Идентификатор : 2
Формат : AC-3
Формат/Информация : Audio Coding 3
Расширение режима : CM (complete main)
Параметр Endianness формата : Big
Идентификатор кодека : A_AC3
Продолжительность : 2 ч. 6 м.
Вид битрейта : Постоянный
Битрейт : 192 Кбит/сек
Каналы : 1 канал
Расположение каналов : Front: C
Частота : 48,0 КГц
Битовая глубина : 16 бит
Метод сжатия : С потерями
Размер потока : 174 Мбайт (2%)
Заголовок : DVO (R5, CP Digital)
Язык : Russian
Default : Да
Forced : Нет
Аудио #2
Идентификатор : 3
Формат : AC-3
Формат/Информация : Audio Coding 3
Расширение режима : CM (complete main)
Параметр Endianness формата : Big
Идентификатор кодека : A_AC3
Продолжительность : 2 ч. 6 м.
Вид битрейта : Постоянный
Битрейт : 192 Кбит/сек
Каналы : 2 канала
Расположение каналов : Front: L R
Частота : 48,0 КГц
Битовая глубина : 16 бит
Метод сжатия : С потерями
Размер потока : 174 Мбайт (2%)
Заголовок : DVO (HTB+)
Язык : Russian
Default : Нет
Forced : Нет
Аудио #3
Идентификатор : 4
Формат : AC-3
Формат/Информация : Audio Coding 3
Расширение режима : CM (complete main)
Параметр Endianness формата : Big
Идентификатор кодека : A_AC3
Продолжительность : 2 ч. 6 м.
Вид битрейта : Постоянный
Битрейт : 192 Кбит/сек
Каналы : 1 канал
Расположение каналов : Front: C
Частота : 48,0 КГц
Битовая глубина : 16 бит
Метод сжатия : С потерями
Размер потока : 174 Мбайт (2%)
Заголовок : Original
Язык : English
Default : Нет
Forced : Нет
Аудио #4
Идентификатор : 5
Формат : AC-3
Формат/Информация : Audio Coding 3
Расширение режима : CM (complete main)
Параметр Endianness формата : Big
Идентификатор кодека : A_AC3
Продолжительность : 2 ч. 6 м.
Вид битрейта : Постоянный
Битрейт : 192 Кбит/сек
Каналы : 1 канал
Расположение каналов : Front: C
Частота : 48,0 КГц
Битовая глубина : 16 бит
Метод сжатия : С потерями
Размер потока : 174 Мбайт (2%)
Заголовок : Commentary
Язык : English
Default : Нет
Forced : Нет
Текст #1
Идентификатор : 6
Формат : UTF-8
Идентификатор кодека : S_TEXT/UTF8
Идентификатор кодека/Информация : UTF-8 Plain Text
Заголовок : русский (вариант 1)
Язык : Russian
Default : Нет
Forced : Нет
Текст #2
Идентификатор : 7
Формат : UTF-8
Идентификатор кодека : S_TEXT/UTF8
Идентификатор кодека/Информация : UTF-8 Plain Text
Заголовок : русский (вариант 2)
Язык : Russian
Default : Нет
Forced : Нет
Текст #3
Идентификатор : 8
Формат : UTF-8
Идентификатор кодека : S_TEXT/UTF8
Идентификатор кодека/Информация : UTF-8 Plain Text
Заголовок : английский
Default : Нет
Forced : Нет
Скриншоты:
-Раздача: 24/7-Не забываем говорить спасибо, Вам не сложно, а мне приятно)))
Прошу с раздачи не уходить! Скачал сам, дай и другим скачать!!!
Приятного просмотра)))
Вне форума [Профиль] [ЛС]
Показать сообщения:    
Ответить на тему

Текущее время: Сегодня 20:58

Часовой пояс: GMT + 3



Вы не можете начинать темы
Вы не можете отвечать на сообщения
Вы не можете редактировать свои сообщения
Вы не можете удалять свои сообщения
Вы не можете голосовать в опросах
Вы не можете прикреплять файлы к сообщениям
Вы не можете скачивать файлы