Сегодня идет свободное скачивание без начисления Download

Кавказская пленница, или новые приключения Шурика (Леонид Гайдай) (Mелодрама, комедия, приключения, семейный, музыка. 1967) BDRip

Ответить на тему
 
Автор
Сообщение

KirovSOFT ®

Пол:

Стаж: 4 года 8 месяцев

Сообщений: 1581

Откуда: Кировская область -Оричи

Торрент-статистика

Пост 31-Янв-2013 15:03

[Цитировать]

Кавказская пленница, или новые приключения Шурика- Русское название: Кавказская пленница, или новые приключения Шурика
Год выпуска: 1967
Выпущено: СССР / Госкино
Жанр: мелодрама, комедия, приключения, семейный, музыка
Перевод: Оригинальный
Субтитры: Отсутствуют

Дата мировой премьеры: 11 апреля 1967
Дата выхода DVD релиза: 16 сентября 2008, «Lizard Cinema Trade»
Режиссер: Леонид Гайдай
Актеры: Александр Демьяненко, Наталья Варлей, Руслан Ахметов, Юрий Никулин, Георгий Вицин, Евгений Моргунов, Владимир Этуш, Фрунзик Мкртчян, Нина Гребешкова, Михаил Глузский
Описание фильма:
Отправившись в одну из горных республик собирать фольклор, герой фильма Шурик влюбляется в симпатичную девушку — «спортсменку, отличницу, и просто красавицу». Но ее неожиданно похищают, чтобы насильно выдать замуж. Наивный Шурик не сразу смог сообразить, что творится у него под носом, — однако затем отважно ринулся освобождать «кавказскую пленницу»…
Релиз группы:
Качество видео: BDRip
Продолжительность: 01:19:53
Видеокодек: XviD
Битрейт видео: ~1988 кбит/с
Размер кадра: 720x528
Аудиокодек: AC3 5.1
Битрейт аудио: 448 кбит/с

MediaInfo:

Код:
Общее
Полное имя : D:\Kavkazskaya.plennitsa.ili.Novye.priklyucheniya.Shurika.1967.O.BDRip.avi
Формат : AVI
Формат/Информация : Audio Video Interleave
Размер файла : 1,36 Гбайт
Продолжительность : 1 ч. 19 м.
Общий поток : 2446 Кбит/сек
Название фильма : Kavkazskaya.plennitsa.ili.Novye.priklyucheniya.Shurika.1967.O.HDRip.-BDU-[uniongang.tv]
Режиссёр : .:UNIONGANG.TV:.
Жанр : Comedy/Family
Программа кодирования : VirtualDubMod 1.5.10.2 (build 2540/release)
Формат оригинала/Имя : Movie
Видео
Идентификатор : 0
Формат : MPEG-4 Visual
Профиль формата : Advanced [email protected]
Параметр BVOP формата : 2
Параметр QPel формата : Нет
Параметр GMC формата : Без точки перехода
Параметр матрицы формата : Default (MPEG)
Идентификатор кодека : XVID
Идентификатор кодека/Подсказка : XviD
Продолжительность : 1 ч. 19 м.
Битрейт : 1989 Кбит/сек
Ширина : 720 пикс.
Высота : 528 пикс.
Соотношение сторон : 4:3
Частота кадров : 23,976 кадр/сек
Цветовое пространство : YUV
Подвыборка цветности : 4:2:0
Битовая глубина : 8 бит
Тип развёртки : Прогрессивная
Метод сжатия : С потерями
Бит/(Пиксели*Кадры) : 0.218
Размер потока : 1,11 Гбайт (81%)
Библиотека кодирования : XviD 1.2.1 (UTC 2008-12-04)
Аудио
Идентификатор : 1
Формат : AC-3
Формат/Информация : Audio Coding 3
Расширение режима : CM (complete main)
Идентификатор кодека : 2000
Продолжительность : 1 ч. 19 м.
Вид битрейта : Постоянный
Битрейт : 448 Кбит/сек
Каналы : 6 каналов
Расположение каналов : Front: L C R, Side: L R, LFE
Частота : 48,0 КГц
Битовая глубина : 16 бит
Метод сжатия : С потерями
Размер потока : 256 Мбайт (18%)
Выравнивание : Соединение по промежуткам
Продолжительность промежутка : 42 мс. (1,00 видеокадр)
Время предзагрузки промежутка : 512 ms
Скриншоты
       

_________________
Вне форума [Профиль] [ЛС]
Показать сообщения:    
Ответить на тему

Текущее время: Сегодня 14:52

Часовой пояс: GMT + 3



Вы не можете начинать темы
Вы не можете отвечать на сообщения
Вы не можете редактировать свои сообщения
Вы не можете удалять свои сообщения
Вы не можете голосовать в опросах
Вы не можете прикреплять файлы к сообщениям
Вы не можете скачивать файлы