Сегодня идет свободное скачивание без начисления Download

Узкая грань / The Narrow Margin (1952) DVDRip

Ответить на тему
 
Автор
Сообщение

Omen ®

Стаж: 4 года 1 месяц

Сообщений: 194359

Торрент-статистика

Пост 01-Фев-2013 00:00

[Цитировать]

-Узкая грань / The Narrow Margin (1952) DVDRip- Русское название: Узкая грань
Оригинальное название: The Narrow Margin
Год выпуска: 1952
Жанр: Детектив, Триллер, Криминал
Производство: США, RKO Radio Pictures Inc.
Описание фильма:
Жена бандита решает дать свидетельские показания против него, и находится под прикрытием, чтобы не быть убитой. Теперь, когда его будут судить, ей нужно проехать полстраны на поезде, чтобы выступить в качестве свидетеля.
Полицейский Уолтер Браун и его напарник были назначены сопровождающими. Однако бандиты убили напарника Брауна, и находятся в том же поезде, что и он. Теперь Уолтеру в одиночку предстоит в целости доставить женщину в суд.
Режиссер: Ричард Флайшер
Актеры: Чарльз МакГроу, Мари Уиндсор, Жаклин Уайт, Гордон Геберт, Куини Леонард, Дэвид Кларк, Питер Вирго, Дон Беддоу, Пол Макси, Гарри Харви
Продолжительность: 01:11:27
Перевод: Двуголосый закадровый

Дата мировой премьеры: 2 мая 1952
Видеокодек: DivX 4/5/6
Битрейт видео: ~1234 kbps
Размер кадра: 608 х 448
Качество видео: DVDRip
Аудиокодек: MP3
Битрейт аудио: 128 kbps, 2 ch

MediaInfo

Общее
Формат : AVI
Формат/Информация : Audio Video Interleave
Размер файла : 701 Мбайт
Продолжительность : 1 ч. 11 м.
Общий поток : 1371 Кбит/сек
Программа кодирования : VirtualDubMod 1.5.1.1a (build 1639/release)
Библиотека кодирования : VirtualDubMod build 1639/release
Видео
Идентификатор : 0
Формат : MPEG-4 Visual
Параметр BVOP формата : 1
Параметр QPel формата : Нет
Параметр GMC формата : Без точки перехода
Параметр матрицы формата : Default (H.263)
Режим смешивания : Сжатый битовый поток
Идентификатор кодека : DX50
Идентификатор кодека/Подсказка : DivX 5
Продолжительность : 1 ч. 11 м.
Битрейт : 1234 Кбит/сек
Ширина : 608 пикселей
Высота : 448 пикселей
Соотношение сторон : 4:3
Частота кадров : 23,976 кадра/сек
Цветовое пространство : YUV
Субдискретизация насыщенности : 4:2:0
Битовая глубина : 8 бит
Тип развёртки : Прогрессивная
Метод сжатия : С потерями
Бит/(Пиксели*Кадры) : 0.189
Размер потока : 631 Мбайт (90%)
Библиотека кодирования : DivX 5.0.5 (UTC 2003-04-24)
Аудио
Идентификатор : 1
Формат : MPEG Audio
Версия формата : Version 1
Профиль формата : Layer 3
Режим : Joint stereo
Расширение режима : MS Stereo
Идентификатор кодека : 55
Идентификатор кодека/Подсказка : MP3
Продолжительность : 1 ч. 11 м.
Вид битрейта : Постоянный
Битрейт : 128 Кбит/сек
Каналы : 2 канала
Частота : 44,1 КГц
Метод сжатия : С потерями
Задержка видео : 21 мс.
Размер потока : 65,4 Мбайт (9%)
Выравнивание : Разделение по промежуткам
Продолжительность промежутка : 42 мс. (1,00 видеокадр)
Время предзагрузки промежутка : 500 мс.
Библиотека кодирования : LAME3.93
Скриншоты:

Время раздачи: 24/7, возможны перерывы
Вне форума [Профиль] [ЛС]
Показать сообщения:    
Ответить на тему

Текущее время: Сегодня 05:12

Часовой пояс: GMT + 3



Вы не можете начинать темы
Вы не можете отвечать на сообщения
Вы не можете редактировать свои сообщения
Вы не можете удалять свои сообщения
Вы не можете голосовать в опросах
Вы не можете прикреплять файлы к сообщениям
Вы не можете скачивать файлы