Сегодня идет свободное скачивание без начисления Download

Довольно сложная девушка / Una Ragazza piuttosto complicata (1969) DVDRip

Ответить на тему
 
Автор
Сообщение

Omen ®

Стаж: 4 года 1 месяц

Сообщений: 194394

Торрент-статистика

Пост 01-Фев-2013 11:04

[Цитировать]

-Довольно сложная девушка / Una Ragazza piuttosto complicata (1969) DVDRip- Русское название: Довольно сложная девушка
Оригинальное название: Una Ragazza piuttosto complicata
Год выпуска: 1969
Жанр: Триллер
Страна: Италия
Описание фильма:
Встреча свободной художницы Клаудии (К. Спаак) и молодого вуайёра Альберто (Ж. Сорель) произошла случайно из-за неправильного соединения телефонной линии и привела к очень многим последствиям. Переходя от одной порочной игры к другой, они заходят очень далеко. Однако всё происходящее проходит по очень четкому плану и после его выполнения, они прощаются.
Снятый по рассказу "Замкнутый круг" (1959) Альберто Моравиа, фильм является одним из сильнейших психологических фильмов-триллеров 60-х годов.
Режиссер: Дамиано Дамиани / Damiano Damiani
Актеры: Жан Сорель, Катарина Спаак, Флоринда Болкан, Луиджи Каселлато, Габриэлла Гримальди, Мария Куадра
Продолжительность: 01:39:54
Перевод: Одноголосый закадровый (Urasiko)

Дата мировой премьеры: 7.02.1969
Видеокодек: Xvid
Битрейт видео: ~1440 kb/s
Размер кадра: 608 x 336
Качество видео: DVDRip
Аудиокодек: AC3
Аудио:
1. 192 kb/s cbr 2 канала русский
2. 192 kb/s cbr 2 канала итальянский

MediaInfo

Общее
Полное имя : Довольно сложная девушка 1969.avi
Формат : AVI
Формат/Информация : Audio Video Interleave
Размер файла : 1,28 Гбайт
Продолжительность : 1 ч. 39 м.
Общий поток : 1839 Кбит/сек
Программа кодирования : VirtualDubModRus 1.5.10.2 (build 2542/release)
Библиотека кодирования : VirtualDubMod build 2542/release
Видео
Идентификатор : 0
Формат : MPEG-4 Visual
Профиль формата : Advanced [email protected]
Параметр BVOP формата : 2
Параметр QPel формата : Нет
Параметр GMC формата : Без точки перехода
Параметр матрицы формата : Выборочная
Идентификатор кодека : XVID
Идентификатор кодека/Подсказка : XviD
Продолжительность : 1 ч. 39 м.
Битрейт : 1440 Кбит/сек
Ширина : 608 пикселей
Высота : 336 пикселей
Соотношение сторон : 16:9
Частота кадров : 25,000 кадров/сек
Цветовое пространство : YUV
Субдискретизация насыщенности : 4:2:0
Битовая глубина : 8 бит
Тип развёртки : Прогрессивная
Метод сжатия : С потерями
Бит/(Пиксели*Кадры) : 0.282
Размер потока : 1,01 Гбайт (78%)
Библиотека кодирования : XviD 1.2.1 (UTC 2008-12-04)
Аудио #1
Идентификатор : 1
Формат : AC-3
Формат/Информация : Audio Coding 3
Расширение режима : CM (complete main)
Параметр Endianness формата : Big
Идентификатор кодека : 2000
Продолжительность : 1 ч. 39 м.
Вид битрейта : Постоянный
Битрейт : 192 Кбит/сек
Каналы : 2 канала
Расположение каналов : Front: L R
Частота : 48,0 КГц
Битовая глубина : 16 бит
Метод сжатия : С потерями
Размер потока : 137 Мбайт (10%)
Выравнивание : Разделение по промежуткам
Продолжительность промежутка : 40 мс. (1,00 видеокадр)
Время предзагрузки промежутка : 500 мс.
Аудио #2
Идентификатор : 2
Формат : AC-3
Формат/Информация : Audio Coding 3
Расширение режима : CM (complete main)
Параметр Endianness формата : Big
Идентификатор кодека : 2000
Продолжительность : 1 ч. 39 м.
Вид битрейта : Постоянный
Битрейт : 192 Кбит/сек
Каналы : 2 канала
Расположение каналов : Front: L R
Частота : 48,0 КГц
Битовая глубина : 16 бит
Метод сжатия : С потерями
Размер потока : 137 Мбайт (10%)
Выравнивание : Разделение по промежуткам
Продолжительность промежутка : 40 мс. (1,00 видеокадр)
Время предзагрузки промежутка : 500 мс.
Скриншоты:

Время раздачи: С 9:00 до 22:00
Вне форума [Профиль] [ЛС]
Похожие темы
Форум Тема Автор Торрент Отв. Посл. сообщение
./templates/default/images/folder_dl.gif Психология, Тренинг, Саморазвитие Элвин Бродерик | Секс, игра и шоколад. Удовольствия и пристрастия (2016) [FB2] moralis
1 | 0

0 | 185

5

2016-08-12 14:36
moralis Последнее
Показать сообщения:    
Ответить на тему

Текущее время: Сегодня 09:45

Часовой пояс: GMT + 3



Вы не можете начинать темы
Вы не можете отвечать на сообщения
Вы не можете редактировать свои сообщения
Вы не можете удалять свои сообщения
Вы не можете голосовать в опросах
Вы не можете прикреплять файлы к сообщениям
Вы не можете скачивать файлы