Сегодня идет свободное скачивание без начисления Download

Красиво уйти / Роскошная жизнь / Going in Style (Мартин Брест / Martin Brest) [1979, США, Драма, комедия, DVDRip] MVO ТВ Центр

Ответить на тему
 
Автор
Сообщение

Omen ®

Стаж: 4 года 1 месяц

Сообщений: 194382

Торрент-статистика

Пост 03-Фев-2013 01:20

[Цитировать]

Красиво уйти (Роскошная жизнь)
Going in Style
- Страна: США
Студия: Warner Bros. Pictures
Русское название: Красиво уйти (Роскошная жизнь)
Оригинальное название: Going in Style
Год выпуска: 1979
Жанр: Драма, Комедия
Описание фильма:
Три пожилых пенсионера — Джо, Эл и Вилли проживают в маленькой квартире в Нью-Йорке. Они живут за счёт чеков социального обеспечения и проводят дни, сидя на скамье парка, читая газеты, кормя голубей и обсуждая неприятных детей. Эта однообразная унылая жизнь приводит их к мысли… ограбить банк, чтобы хотя бы «красиво уйти» из незадавшейся жизни.
Режиссер: Мартин Брест / Martin Brest
Актеры: Джордж Бернс, Арт Карни, Ли Страсберг, Чарльз Хэллахан, Памела Пейтон-Райт, Сиобхан Киган, Брайан Невилл, Мэри Теста, Джин Шевлин
Продолжительность: 01:38:18
Перевод: Многоголосый закадровый (ТВ Центр) (1997-1999 год)

Качество: DVDRip by Lenape
Формат: avi
Видео: XviD, 720x400, 23.976 fps, 1993 Кбит/с, Bits/(Pixel*Frame): 0.289
Аудио: AC3, 1 ch, 128 Кбит/с, 48.0 KHz, 16 bits, Lossy
Субтитры: нет

Mediainfo

Код:
General
Complete name                            : Красиво уйти  (Роскошная жизнь). Going in Style. 1979. (США, драма, комедия). DVDRip. MVO ТВ Центр.avi
Format                                   : AVI
Format/Info                              : Audio Video Interleave
File size                                : 1.46 GiB
Duration                                 : 1h 38mn
Overall bit rate                         : 2 130 Kbps
Writing application                      : VirtualDubMod 1.5.10.3 | [url=http://www.virtualdub-fr.org]www.virtualdub-fr.org[/url] || (build 2550/release)
Writing library                          : VirtualDubMod build 2550/release
Video
ID                                       : 0
Format                                   : MPEG-4 Visual
Format profile                           : Advanced [email protected]
Format settings, BVOP                    : 1
Format settings, QPel                    : No
Format settings, GMC                     : No warppoints
Format settings, Matrix                  : Custom
Codec ID                                 : XVID
Codec ID/Hint                            : XviD
Duration                                 : 1h 38mn
Bit rate                                 : 1 993 Kbps
Width                                    : 720 pixels
Height                                   : 400 pixels
Display aspect ratio                     : 16:9
Frame rate                               : 23.976 fps
Color space                              : YUV
Chroma subsampling                       : 4:2:0
Bit depth                                : 8 bits
Scan type                                : Progressive
Compression mode                         : Lossy
Bits/(Pixel*Frame)                       : 0.289
Stream size                              : 1.37 GiB (94%)
Writing library                          : XviD 1.2.1 (UTC 2008-12-04)
Audio
ID                                       : 1
Format                                   : AC-3
Format/Info                              : Audio Coding 3
Mode extension                           : CM (complete main)
Format settings, Endianness              : Big
Codec ID                                 : 2000
Duration                                 : 1h 38mn
Bit rate mode                            : Constant
Bit rate                                 : 128 Kbps
Channel(s)                               : 1 channel
Channel positions                        : Front: C
Sampling rate                            : 48.0 KHz
Bit depth                                : 16 bits
Compression mode                         : Lossy
Stream size                              : 90.0 MiB (6%)
Alignment                                : Split accross interleaves
Interleave, duration                     : 42 ms (1.00 video frame)
Interleave, preload duration             : 500 ms
Скриншоты:
     
       

Моё мнение о фильме

Прекрасный фильм.
Рекомендую к просмотру.
Вне форума [Профиль] [ЛС]
Похожие темы
Форум Тема Автор Торрент Отв. Посл. сообщение
./templates/default/images/folder_dl.gif Обучающее видео Роман Синичкин и Степан Каморный | Как фотографировать людей красиво (2014) [PCRec] Omen
1 | 0

0 | 1155

32

2014-06-20 22:27
Omen Последнее
./templates/default/images/folder_dl.gif Обучающее видео Александр Заморин | Зеркалка Canon. Живая инструкция по съеме красивых фотографий (2014) CamRip Omen
1 | 0

0 | 1318

39

2014-12-19 22:05
Omen Последнее
./templates/default/images/folder_dl.gif Строительство, Дизайн и Ремонт А.А. Савельев | Красивые потолки. Устройство и монтаж (2008) [PDF] [email protected]
1 | 0

0 | 162

3

2016-07-28 21:39
[email protected] Последнее
Показать сообщения:    
Ответить на тему

Текущее время: Сегодня 20:24

Часовой пояс: GMT + 3



Вы не можете начинать темы
Вы не можете отвечать на сообщения
Вы не можете редактировать свои сообщения
Вы не можете удалять свои сообщения
Вы не можете голосовать в опросах
Вы не можете прикреплять файлы к сообщениям
Вы не можете скачивать файлы