Сегодня идет свободное скачивание без начисления Download

Ад в поднебесье (Вздымающийся ад) / The Towering Inferno (1974) HDRip [H.264]

Ответить на тему
 
Автор
Сообщение

Omen ®

Стаж: 4 года 1 месяц

Сообщений: 194390

Торрент-статистика

Пост 04-Фев-2013 02:12

[Цитировать]

-Ад в поднебесье (Вздымающийся ад) / The Towering Inferno (1974) HDRip [H.264]- Страна: США
Русское название: Ад в поднебесье (Вздымающийся ад)
Оригинальное название: The Towering Inferno
Год выпуска: 1974
Жанр: Драма, Боевик, Фильм-катастрофа
Описание фильма:
По мотивам романов "Башня" Ричарда Стерна и "Стеклянный ад" Томаса Скортиа и Фрэнка Робинсона. Архитектор Даг Робертс, автор проекта нового небоскреба, прибыл на торжества, посвященные открытию этого грандиозного сооружения в Сан-Франциско. Когда на открытие небоскреба съехались представители властей, звезды кино и телевидения в здании начался пожар. Прибывшие пожарные, которых возглавлял Майкл О'Хэллорэн, приступили к борьбе с огнем и к спасению людей...
Режиссер: Джон Гиллермин / John Guillermin, Ирвин Аллен / Irwin Allen
Актеры: Стив МакКуин (Chief Michael O'Hallorhan,), Пол Ньюман (Doug Roberts,), Уильям Холден (James Duncan,), Фэй Данауэй (Susan Franklin), Фред Астер (Harlee Claiborne), Сьюзэн Блэйкли (Patty Simmons), Ричард Чемберлен (Roger Simmons), Дженнифер Джонс (Lisolette Mueller), О. Дж. Симпсон (Harry Jernigan), Роберт Вон (Sen. Gary Parker), Роберт Вагнер (Dan Bigelow), Сьюзэн Флэннери (Lorrie), Шила Аллен (Mrs. Paula Ramsay), Норман Бёртон (Will Giddings), Джек Коллинз (Mayor Robert Ramsey), Дон Гордон (Kappy), Фелтон Перри (Scott), Грегори Сьерра (Carlos), Эрни Ф. Орсатти (Mark Powers), Дэбни Коулмен (Deputy Chief #1)
Продолжительность: 02:44:53
Перевод: Многоголосый закадровый

Качество: HDRip by pankrat7
Формат: mkv
Видео: x264, 1016x432 (2.35:1), 1995 Kbps, 23,976 fps, 0,186 bpp
Аудио 1: AC3, 2ch, 48Hz, CBR, 256 Kbps, Русский
Аудио 2: AC3, 6ch, 48Hz, CBR, 448 Kbps, Original, Английский
Субтитры: Английские
Сэмпл: Ссылка

Mediainfo

General
Complete name : Ад в поднебесье (Вздымающийся ад). The Towering Inferno. 1974. (фильм-катастрофа). HDRip-AVC.mkv
Format : Matroska
Format version : Version 2
File size : 3.11 GiB
Duration : 2h 44mn
Overall bit rate : 2 701 Kbps
Encoded by : Pankrat7
Encoded date : UTC 2011-01-07 11:33:00
Writing application : mkvmerge v3.4.0 ('Rapunzel') сборка от May 22 2010 21:59:32
Writing library : libebml v0.8.1 + libmatroska v0.9.0
TITLE : The Towering Inferno(1974) Pankrat7
DATE_RELEASED : January 7 th 2010
COMMENT : HDRip/x264/AC3 (Source: AVC; 1920x816 (2.35:1); ~ 12.5 Mbps; 23,976 fps; 0,324 bpp)
Attachment : Yes / Yes
Video
ID : 1
Format : AVC
Format/Info : Advanced Video Codec
Format profile : [url=mailto:[email protected]][email protected][/url]
Format settings, CABAC : Yes
Format settings, ReFrames : 10 frames
Codec ID : V_MPEG4/ISO/AVC
Duration : 2h 44mn
Bit rate : 1 943 Kbps
Width : 1 016 pixels
Height : 432 pixels
Display aspect ratio : 2.35:1
Frame rate mode : Constant
Frame rate : 23.976 fps
Color space : YUV
Chroma subsampling : 4:2:0
Bit depth : 8 bits
Scan type : Progressive
Bits/(Pixel*Frame) : 0.185
Stream size : 2.24 GiB (72%)
Title : 1016x432 (2.35:1); 1995 Kbps; 23,976 fps; 0,186 bpp
Writing library : x264 core 112 r1834kMod a51816a
Encoding settings : cabac=1 / ref=10 / deblock=1:-2:-1 / analyse=0x3:0x113 / me=umh / subme=10 / psy=1 / psy_rd=0.97:0.15 / mixed_ref=1 / me_range=24 / chroma_me=1 / trellis=2 / 8x8dct=1 / cqm=0 / deadzone=21,11 / fast_pskip=1 / chroma_qp_offset=-3 / threads=6 / sliced_threads=0 / nr=0 / decimate=1 / interlaced=0 / constrained_intra=0 / bframes=11 / b_pyramid=2 / b_adapt=2 / b_bias=0 / direct=3 / weightb=1 / open_gop=0 / weightp=2 / keyint=250 / keyint_min=23 / scenecut=40 / intra_refresh=0 / rc=crf / mbtree=0 / crf=19.7500 / qcomp=0.72 / qpmin=0 / qpmax=51 / qpstep=4 / ip_ratio=1.40 / pb_ratio=1.30 / aq=1:1.00 / zones=232216,237215,q=35
Language : English
Default : No
Forced : No
Matrix coefficients : BT.709
Audio #1
ID : 2
Format : AC-3
Format/Info : Audio Coding 3
Mode extension : CM (complete main)
Format settings, Endianness : Big
Codec ID : A_AC3
Duration : 2h 44mn
Bit rate mode : Constant
Bit rate : 256 Kbps
Channel(s) : 2 channels
Channel positions : Front: L R
Sampling rate : 48.0 KHz
Bit depth : 16 bits
Compression mode : Lossy
Stream size : 302 MiB (9%)
Title : MVO
Language : Russian
Default : Yes
Forced : No
Audio #2
ID : 3
Format : AC-3
Format/Info : Audio Coding 3
Mode extension : CM (complete main)
Format settings, Endianness : Big
Codec ID : A_AC3
Duration : 2h 44mn
Bit rate mode : Constant
Bit rate : 448 Kbps
Channel(s) : 6 channels
Channel positions : Front: L C R, Side: L R, LFE
Sampling rate : 48.0 KHz
Bit depth : 16 bits
Compression mode : Lossy
Stream size : 528 MiB (17%)
Title : Original
Language : English
Default : No
Forced : No
Text
ID : 4
Format : UTF-8
Codec ID : S_TEXT/UTF8
Codec ID/Info : UTF-8 Plain Text
Language : English
Default : No
Forced : No

Дополнительно о фильме

Этот грандиозный зрелищный боевик, приписываемый к жанру «фильмов- катастроф», считается произведением английского режиссёра Джона Гиллермина. Однако американский продюсер Эрвин Аллен, который практически возродил в 70-е годы эстетику прежних голливудских эффектных зрелищ со всевозможными авариями и приключениями на море, суше и в воздухе, ещё значится в титрах фильма как постановщик сцен пожара. А поскольку вздымающийся в небо Сан-Франциско один из высочайших небоскрёбов мира большую часть данной ленты именно горит ярким пламенем, было бы несправедливо не посчитать Аллена фактически её вторым автором. Как раз благодаря его усилиям оказалась удовлетворённой зрительская страсть к «большим киноспектаклям», в которых к тому же заняты столь известные актёры (был даже долгий спор, как разместить в титрах фамилии двух главных звёзд — Стива МакКуина и Пола Ньюмена).
Скриншоты:
       
       
Время раздачи: С 10:00 до 17:00 (мск)
Вне форума [Профиль] [ЛС]
Показать сообщения:    
Ответить на тему

Текущее время: Сегодня 14:53

Часовой пояс: GMT + 3



Вы не можете начинать темы
Вы не можете отвечать на сообщения
Вы не можете редактировать свои сообщения
Вы не можете удалять свои сообщения
Вы не можете голосовать в опросах
Вы не можете прикреплять файлы к сообщениям
Вы не можете скачивать файлы