Сегодня идет свободное скачивание без начисления Download

Джанго / Django (1966) [H.264] BDRip

Ответить на тему
 
Автор
Сообщение

Omen ®

Стаж: 4 года 1 месяц

Сообщений: 194394

Торрент-статистика

Пост 04-Фев-2013 21:48

[Цитировать]

-Джанго / Django (1966) BDRip- Русское название: Джанго
Оригинальное название: Django
Год выпуска: 1966
Производство: Италия, Испания, Франция / Manolo Blognini production der der B.R.C Roma, Tegisa Madrid
Жанр: Вестерн-Описание фильма:
Классический вестерн, главную роль в котором исполняет Франко Неро. Как всегда, Дикий Запад наполнен бандитами и головорезами. Терроризм процветает на территории небольшого городка, пока в нем не появляется защитник слабых и угнетенных Джанго. Он появляется ниоткуда, притащив за собой на веревке гроб с "секретом". Трудна миссия по защите угнетенных, но, как всегда, выполнима, тем более, если за дело берется Джанго-Режиссер: Серджо Корбуччи
Актеры: Франко Неро, Хосе Бодало, Лорендана Нушяк, Анхель Альварес, Джимми Даглас, Симон Арриага, Иван Скаратуглиа, Эрик Шипперс, Рафаэль Албайчин, Хосе Каналекас, Эдуардо Фаджардо, Сильвана Баччи, Ремо Де Анджелис, Гильермо Мендез, Лючано Росси, Хосе Террон-Продолжительность: 01:31:35
Перевод: Многоголосый закадровый- -Дата мировой премьеры: 6 апреля 1966
Дата выхода DVD релиза: 16 июня 2011, «Cinema Prestige»-Видеокодек: MPEG-4 AVC/H.264
Битрейт видео: ~3500 Кбит/с
Размер кадра: 960x576
Качество видео: BDRip
Аудио#1: Русский (AC3, 6 ch, 384 Кбит/с)
Аудио#2: Английский (AC3, 2 ch, 192 Кбит/с)

MediaInfo

Общее
Уникальный идентификатор : 194264065941036893337898659918968694884 (0x9225E5EE9004A87596AD625DF6C6A864)
Полное имя : D:\торрент-раздачи\Dzhango.1966.x264.BDRip.mkv
Формат : Matroska
Версия формата : Version 2
Размер файла : 2,61 Гбайт
Продолжительность : 1 ч. 31 м.
Общий поток : 4078 Кбит/сек
Название фильма : Dzhango.1966.x264.BDRip.(AVC)
Дата кодирования : UTC 2013-02-03 19:42:32
Программа кодирования : mkvmerge v4.0.0 ('The Stars were mine') сборка от Jun 6 2010 16:18:42
Библиотека кодирования : libebml v1.0.0 + libmatroska v1.0.0
Видео
Идентификатор : 1
Формат : AVC
Формат/Информация : Advanced Video Codec
Профиль формата : [url=mailto:[email protected]][email protected][/url]
Параметр CABAC формата : Да
Параметр ReFrames формата : 8 кадров
Идентификатор кодека : V_MPEG4/ISO/AVC
Продолжительность : 1 ч. 31 м.
Битрейт : 3500 Кбит/сек
Ширина : 960 пикселей
Высота : 576 пикселей
Соотношение сторон : 1,667
Режим частоты кадров : Постоянный
Частота кадров : 23,976 кадра/сек
Цветовое пространство : YUV
Субдискретизация насыщенности : 4:2:0
Битовая глубина : 8 бит
Тип развёртки : Прогрессивная
Бит/(Пиксели*Кадры) : 0.264
Размер потока : 2,19 Гбайт (84%)
Заголовок : Django
Библиотека кодирования : x264 core 129 r2230 1cffe9f
Настройки программы : cabac=1 / ref=8 / deblock=1:-2:-2 / analyse=0x3:0x133 / me=umh / subme=11 / psy=1 / psy_rd=1.00:0.00 / mixed_ref=1 / me_range=32 / chroma_me=1 / trellis=2 / 8x8dct=1 / cqm=0 / deadzone=21,11 / fast_pskip=0 / chroma_qp_offset=-2 / threads=3 / lookahead_threads=1 / sliced_threads=0 / nr=0 / decimate=0 / interlaced=0 / bluray_compat=0 / constrained_intra=0 / bframes=8 / b_pyramid=2 / b_adapt=2 / b_bias=0 / direct=3 / weightb=1 / open_gop=0 / weightp=2 / keyint=240 / keyint_min=23 / scenecut=40 / intra_refresh=0 / rc_lookahead=40 / rc=2pass / mbtree=1 / bitrate=3500 / ratetol=1.0 / qcomp=0.60 / qpmin=10 / qpmax=51 / qpstep=4 / cplxblur=20.0 / qblur=0.5 / ip_ratio=1.40 / aq=2:1.00
Язык : English
Default : Нет
Forced : Нет
Аудио #1
Идентификатор : 2
Формат : AC-3
Формат/Информация : Audio Coding 3
Расширение режима : CM (complete main)
Параметр Endianness формата : Big
Идентификатор кодека : A_AC3
Продолжительность : 1 ч. 31 м.
Вид битрейта : Постоянный
Битрейт : 384 Кбит/сек
Каналы : 6 каналов
Расположение каналов : Front: L C R, Side: L R, LFE
Частота : 48,0 КГц
Битовая глубина : 16 бит
Метод сжатия : С потерями
Размер потока : 252 Мбайт (9%)
Язык : Russian
Default : Да
Forced : Нет
Аудио #2
Идентификатор : 3
Формат : AC-3
Формат/Информация : Audio Coding 3
Расширение режима : CM (complete main)
Параметр Endianness формата : Big
Идентификатор кодека : A_AC3
Продолжительность : 1 ч. 31 м.
Вид битрейта : Постоянный
Битрейт : 192 Кбит/сек
Каналы : 1 канал
Расположение каналов : Front: C
Частота : 48,0 КГц
Битовая глубина : 16 бит
Метод сжатия : С потерями
Размер потока : 126 Мбайт (5%)
Язык : English
Default : Нет
Forced : Нет
Меню
00:00:00.000 : en:Chapter 01
00:03:00.514 : en:Chapter 02
00:08:25.672 : en:Chapter 03
00:13:05.742 : en:Chapter 04
00:17:54.949 : en:Chapter 05
00:22:34.728 : en:Chapter 06
00:27:49.293 : en:Chapter 07
00:33:23.877 : en:Chapter 08
00:38:13.166 : en:Chapter 09
00:41:37.120 : en:Chapter 10
00:44:02.640 : en:Chapter 11
00:49:54.408 : en:Chapter 12
00:52:56.297 : en:Chapter 13
00:55:06.594 : en:Chapter 14
00:58:48.859 : en:Chapter 15
01:02:36.795 : en:Chapter 16
01:06:33.281 : en:Chapter 17
01:12:19.877 : en:Chapter 18
01:17:52.459 : en:Chapter 19
01:20:31.493 : en:Chapter 20
01:23:43.143 : en:Chapter 21
01:26:01.365 : en:Chapter 22
01:30:16.578 : en:Chapter 23
Скриншоты:
                   
Время раздачи: 24/7
Вне форума [Профиль] [ЛС]
Показать сообщения:    
Ответить на тему

Текущее время: Сегодня 16:41

Часовой пояс: GMT + 3



Вы не можете начинать темы
Вы не можете отвечать на сообщения
Вы не можете редактировать свои сообщения
Вы не можете удалять свои сообщения
Вы не можете голосовать в опросах
Вы не можете прикреплять файлы к сообщениям
Вы не можете скачивать файлы