Сегодня идет свободное скачивание без начисления Download

Оскар / Oscar (1967) DVDRip [H.264]

Ответить на тему
 
Автор
Сообщение

Omen ®

Стаж: 4 года 1 месяц

Сообщений: 194390

Торрент-статистика

Пост 07-Фев-2013 12:40

[Цитировать]

-Оскар / Oscar (1967) DVDRip [H.264]- Страна: Франция
Русское название: Оскар
Оригинальное название: Oscar
Год выпуска: 1967
Жанр: Комедия
Описание фильма:
Бертран Барнье — крупный промышленник, к которому с утра пораньше является его управляющий Кристиан. Он заявляет, что любит его дочь Колет, а после этого признается, что украл у предпринимателя кругленькую сумму. Вдобавок бизнесмен узнает, что его горничная увольняется и в одночасье становится баронессой.
Колет заявляет, что беременна от бывшего шофера по имени Оскар. Кроме того, выяснятся, что она вовсе не дочь Барнье и, не желая оставаться старой девой, готова выйти замуж за любого встречного…
К тому же, к этой истории примешиваются два черных чемодана, один из которых набит деньгами и драгоценностям, а другой женским нижним бельем… Как тут, от такого потока событий, происходящих в течение одного дня, «бедному» Бертрану не сойти с ума?!
Режиссер: Эдуар Молинаро / Edouard Molinaro
Актеры: Луи де Фюнес, Клод Риш, Марио Давид, Жермэн Дельба, Клоди Жансак, Агата Натансон, Доминик Паж, Поль Пребуа, Сильвия Сорель, Филипп Валлори
Продолжительность: 01:19:50
Перевод: Дубляж, Многоголосый закадровый

Качество: DVDRip
Формат: MKV
Видео: x264, [email protected], 2.25:1, 25.000 fps, 2 413 Kbps, Bits/(Pixel*Frame): 0.316
Аудио 1: AC3 Dolby Digital, 2/0 (L,R) ch, ~192.00 kbps avg, Русский, Дубляж («Союзмультфильм», 1968 год)
Аудио 2: AC3 Dolby Digital, 2/0 (L,R) ch, ~192.00 kbps avg, Русский, Многоголосый закадровый
Аудио 3: AC3 Dolby Digital, 2/0 (L,R) ch, ~192.00 kbps avg, Русский, Многоголосый закадровый
Аудио 4: AC3 Dolby Digital, 2/0 (L,R) ch, ~192.00 kbps avg, Original, French
Субтитры: нет
Сэмпл: Ссылка

Mediainfo

General
Complete name : Оскар. Oscar. 1967. (комедия положений с Л.де Фюнесом). DVDRip-AVC.mkv
Format : Matroska
Format version : Version 4 / Version 2
File size : 1.78 GiB
Duration : 1h 19mn
Overall bit rate : 3 184 Kbps
Movie name : «Оскар / Oscar»
Encoded date : UTC 2013-02-04 19:50:40
Writing application : mkvmerge v6.0.0 ('Coming Up For Air') built on Jan 20 2013 09:52:00
Writing library : libebml v1.3.0 + libmatroska v1.4.0
Comment : DVDRip-AVC
Original date released : January 5th 2013
Encoded by : imgeorgest®
Video
ID : 1
Format : AVC
Format/Info : Advanced Video Codec
Format profile : [url=mailto:[email protected]][email protected][/url]
Format settings, CABAC : Yes
Format settings, ReFrames : 16 frames
Codec ID : V_MPEG4/ISO/AVC
Duration : 1h 19mn
Bit rate : 2 413 Kbps
Width : 700 pixels
Height : 436 pixels
Display aspect ratio : 2.25:1
Original display aspect ratio : 2.25:1
Frame rate mode : Constant
Frame rate : 25.000 fps
Color space : YUV
Chroma subsampling : 4:2:0
Bit depth : 8 bits
Scan type : Progressive
Bits/(Pixel*Frame) : 0.316
Stream size : 1.31 GiB (74%)
Title : Оскар. Oscar. 1967. DVDRip-AVC
Writing library : x264 core 125 r2200 999b753
Encoding settings : cabac=1 / ref=16 / deblock=1:-1:-1 / analyse=0x3:0x133 / me=umh / subme=11 / psy=1 / psy_rd=1.00:0.20 / mixed_ref=1 / me_range=48 / chroma_me=1 / trellis=2 / 8x8dct=1 / cqm=0 / deadzone=21,11 / fast_pskip=1 / chroma_qp_offset=-3 / threads=12 / lookahead_threads=2 / sliced_threads=0 / nr=0 / decimate=0 / interlaced=0 / bluray_compat=0 / constrained_intra=0 / bframes=8 / b_pyramid=2 / b_adapt=2 / b_bias=0 / direct=3 / weightb=1 / open_gop=0 / weightp=2 / keyint=250 / keyint_min=25 / scenecut=40 / intra_refresh=0 / rc_lookahead=50 / rc=2pass / mbtree=1 / bitrate=2413 / ratetol=1.0 / qcomp=0.60 / qpmin=0 / qpmax=69 / qpstep=4 / cplxblur=20.0 / qblur=0.5 / vbv_maxrate=50000 / vbv_bufsize=62500 / nal_hrd=none / ip_ratio=1.40 / aq=1:1.00
Language : French
Default : Yes
Forced : No
Color primaries : BT.601 PAL
Transfer characteristics : BT.470 System B, BT.470 System G
Matrix coefficients : BT.601
Audio #1
ID : 2
Format : AC-3
Format/Info : Audio Coding 3
Mode extension : CM (complete main)
Format settings, Endianness : Big
Codec ID : A_AC3
Duration : 1h 19mn
Bit rate mode : Constant
Bit rate : 192 Kbps
Channel(s) : 2 channels
Channel positions : Front: L R
Sampling rate : 48.0 KHz
Bit depth : 16 bits
Compression mode : Lossy
Stream size : 110 MiB (6%)
Title : Дубляж («Союзмультфильм», 1968 год)
Language : Russian
Default : Yes
Forced : No
Audio #2
ID : 3
Format : AC-3
Format/Info : Audio Coding 3
Mode extension : CM (complete main)
Format settings, Endianness : Big
Codec ID : A_AC3
Duration : 1h 19mn
Bit rate mode : Constant
Bit rate : 192 Kbps
Channel(s) : 2 channels
Channel positions : Front: L R
Sampling rate : 48.0 KHz
Bit depth : 16 bits
Compression mode : Lossy
Stream size : 110 MiB (6%)
Title : MVO 1
Language : Russian
Default : No
Forced : No
Audio #3
ID : 4
Format : AC-3
Format/Info : Audio Coding 3
Mode extension : CM (complete main)
Format settings, Endianness : Big
Codec ID : A_AC3
Duration : 1h 19mn
Bit rate mode : Constant
Bit rate : 192 Kbps
Channel(s) : 2 channels
Channel positions : Front: L R
Sampling rate : 48.0 KHz
Bit depth : 16 bits
Compression mode : Lossy
Stream size : 110 MiB (6%)
Title : MVO 2
Language : Russian
Default : No
Forced : No
Audio #4
ID : 5
Format : AC-3
Format/Info : Audio Coding 3
Mode extension : CM (complete main)
Format settings, Endianness : Big
Codec ID : A_AC3
Duration : 1h 19mn
Bit rate mode : Constant
Bit rate : 192 Kbps
Channel(s) : 2 channels
Channel positions : Front: L R
Sampling rate : 48.0 KHz
Bit depth : 16 bits
Compression mode : Lossy
Stream size : 110 MiB (6%)
Title : Original
Language : French
Default : No
Forced : No
Скриншоты:
       
       

Моё мнение о фильме

Отличная комедия.
Рекомендую.
Вне форума [Профиль] [ЛС]
Показать сообщения:    
Ответить на тему

Текущее время: Сегодня 08:52

Часовой пояс: GMT + 3



Вы не можете начинать темы
Вы не можете отвечать на сообщения
Вы не можете редактировать свои сообщения
Вы не можете удалять свои сообщения
Вы не можете голосовать в опросах
Вы не можете прикреплять файлы к сообщениям
Вы не можете скачивать файлы