Сегодня идет свободное скачивание без начисления Download

Банда / Le Gang (1976) [H.264] DVDRip

Ответить на тему
 
Автор
Сообщение

Omen ®

Стаж: 4 года 1 месяц

Сообщений: 194382

Торрент-статистика

Пост 07-Фев-2013 14:20

[Цитировать]

-Банда / Le Gang (1976) [H.264] DVDRip- Русское название: Банда
Оригинальное название: Le Gang
Год выпуска: 1976
Жанр: Драма, Криминал
Страна: Италия, Франция
Производство: Adel Productions, Mondial Televisione Film
Описание фильма:
В еще не оправившейся от Второй Мировой войны Франции рождается новый вид преступника: элегантный грабитель с достоинством и чувством юмора — именно такой, как герой картины Роббер.
Банда Робера — это симпатичная компания человечных и обаятельных уголовников, хитро обводящих вокруг пальца жандармов и «проворачивающих» свои дела дерзко, лихо и «с огоньком». Но, к несчастью, вздорная и непредсказуемая природа опасной профессии не щадит даже самых обворожительных злодеев…
Режиссер: Жак Дере
Сценарий: Альфонс Будар, Жан-Клод Карьер, Роже Борнише
Актеры: Ален Делон, Ксавье Депра, Ролан Бертен, Адальберто Мария Мерли, Морис Барье, Раймон Бюссьер, Джампьеро Альбертини, Лаура Бетти, Николь Кальфан, Жилетт Барбье
Продолжительность: 01:39:31
Перевод: Многоголосый закадровый
Субтитры: Отсутствуют

Дата мировой премьеры: 19 января 1977
Дата выхода DVD релиза: 21 августа 2008, «Никитин»
Видеокодек: MPEG-4 AVC/H.264
Битрейт видео: ~2199 Кбит/сек
Размер кадра: 720x400
Качество видео: DVDRip
Аудиокодек: AC3 5.1
Битрейт аудио: 384 kbps

MediaInfo:

Общее
Уникальный идентификатор : 205818926748270373263706926756462184410 (0x9AD7488DDC310511BC3015AF3E01C7DA)
Полное имя : D:\Downloads\Банда.mkv
Формат : Matroska
Версия формата : Version 2
Размер файла : 1,80 Гбайт
Продолжительность : 1 ч. 39 м.
Общий поток : 2584 Кбит/сек
Дата кодирования : UTC 2013-02-05 20:29:23
Программа кодирования : mkvmerge v5.7.0 ('The Whirlwind') built on Jul 29 2012 15:12:35
Библиотека кодирования : libebml v1.2.3 + libmatroska v1.3.0
Видео
Идентификатор : 1
Формат : AVC
Формат/Информация : Advanced Video Codec
Профиль формата : [url=mailto:[email protected]][email protected][/url]
Параметр CABAC формата : Да
Параметр ReFrames формата : 8 кадров
Режим смешивания : Header stripping
Идентификатор кодека : V_MPEG4/ISO/AVC
Продолжительность : 1 ч. 39 м.
Битрейт : 2199 Кбит/сек
Ширина : 720 пикселей
Высота : 400 пикселей
Соотношение сторон : 16:9
Режим частоты кадров : Постоянный
Частота кадров : 25,000 кадров/сек
Цветовое пространство : YUV
Субдискретизация насыщенности : 4:2:0
Битовая глубина : 8 бит
Тип развёртки : Прогрессивная
Бит/(Пиксели*Кадры) : 0.305
Размер потока : 1,49 Гбайт (83%)
Заголовок : Le gang
Библиотека кодирования : x264 core 129 r2230 1cffe9f
Настройки программы : cabac=1 / ref=8 / deblock=1:-1:-1 / analyse=0x3:0x133 / me=umh / subme=9 / psy=1 / psy_rd=1.00:0.15 / mixed_ref=1 / me_range=16 / chroma_me=1 / trellis=2 / 8x8dct=1 / cqm=0 / deadzone=21,11 / fast_pskip=1 / chroma_qp_offset=-3 / threads=3 / lookahead_threads=1 / sliced_threads=0 / nr=0 / decimate=1 / interlaced=0 / bluray_compat=0 / constrained_intra=0 / bframes=3 / b_pyramid=2 / b_adapt=2 / b_bias=0 / direct=3 / weightb=1 / open_gop=0 / weightp=2 / keyint=250 / keyint_min=25 / scenecut=40 / intra_refresh=0 / rc_lookahead=60 / rc=2pass / mbtree=1 / bitrate=2199 / ratetol=1.0 / qcomp=0.60 / qpmin=0 / qpmax=69 / qpstep=4 / cplxblur=20.0 / qblur=0.5 / ip_ratio=1.40 / aq=1:1.00
Язык : French
Default : Да
Forced : Нет
Аудио
Идентификатор : 2
Формат : AC-3
Формат/Информация : Audio Coding 3
Расширение режима : CM (complete main)
Параметр Endianness формата : Big
Режим смешивания : Header stripping
Идентификатор кодека : A_AC3
Продолжительность : 1 ч. 39 м.
Вид битрейта : Постоянный
Битрейт : 384 Кбит/сек
Каналы : 6 каналов
Расположение каналов : Front: L C R, Side: L R, LFE
Частота : 48,0 КГц
Битовая глубина : 16 бит
Метод сжатия : С потерями
Размер потока : 273 Мбайт (15%)
Заголовок : Многоголосый закадровый
Язык : Russian
Default : Да
Forced : Нет
Скриншоты:                    
Вне форума [Профиль] [ЛС]
Показать сообщения:    
Ответить на тему

Текущее время: Сегодня 17:37

Часовой пояс: GMT + 3



Вы не можете начинать темы
Вы не можете отвечать на сообщения
Вы не можете редактировать свои сообщения
Вы не можете удалять свои сообщения
Вы не можете голосовать в опросах
Вы не можете прикреплять файлы к сообщениям
Вы не можете скачивать файлы