Сегодня идет свободное скачивание без начисления Download

Полет Феникса / The Flight of the Phoenix (1965) [H.264] HDTVRip

Ответить на тему
 
Автор
Сообщение

Omen ®

Стаж: 4 года 1 месяц

Сообщений: 194394

Торрент-статистика

Пост 07-Фев-2013 14:20

[Цитировать]

-Полет Феникса / The Flight of the Phoenix (1965) HDTVRip- Русское название: Полет Феникса
Оригинальное название: The Flight of the Phoenix
Выпущено: США
Год выпуска: 1965
Жанр: Драма, Приключения
Режиссер: Роберт Олдрич
Сценарий: Лукас Хеллер, Тревор Дадли Смит
Актеры: Джеймс Стюарт, Ричард Аттенборо, Питер Финч, Харди Крюгер, Эрнест Боргнайн, Иэн Бэннен, Рональд Фрайзер, Кристиан Маркан, Дэн Дюрьи, Джордж Кеннеди.
Описание фильма: Небольшой грузовой самолет, попав в сильнейшую песчаную бурю, терпит крушение посреди пустыни. Понимая, что помощь не придет, команда принимает решение самостоятельно построить новый самолет из обломков разбившегося.
Командир корабля Фрэнк Таунс и штурман Лью Моран ведут людей к спасению, несмотря на нарастающее напряжение в отношениях между членами команды.

Дата мировой премьеры: 15 декабря 1965
Релиз на DVD: 5 февраля 2009, «Двадцатый Век Фокс СНГ»
Продолжительность: 02:16:02
Перевод: Многоголосый закадровый (профессиональный) + Двуголосый закадровый (профессиональный)
Субтитры: Русские, Английские (вшитые, отключаемые)
Видеокодек: MPEG4 AVC / H.264
Битрейт видео: ~2294 Kbps
Размер кадра: 1024х560
Качество видео: HDTVRip
Аудио #1: Русский, AC3 Dolby Digital, 2/0 (L,R) ch, ~192 kbps, 48 kHz | MVO (ОРТ)
Аудио #2: Русский, AC3 Dolby Digital, 2/0 (L,R) ch, ~192 kbps, 48 kHz | DVO
Аудио #3: Английский, AC3 Dolby Digital, 2/0 (L,R) ch, ~384 kbps, 48 kHz | Original-

Медиа Инфо

Код:
General
Unique ID                                : 233289996197371358565211337456412669459 (0xAF8204D944AB23288519E9FB9FAA3613)
Complete name                            : C:\...\Polet.Feniksa.1965.TRIPLE.HDTVRip.H.264.AC3.Poseydonbond.mkv
Format                                   : Matroska
Format version                           : Version 2
File size                                : 2.91 GiB
Duration                                 : 2h 16mn
Overall bit rate mode                    : Variable
Overall bit rate                         : 3 063 Kbps
Encoded date                             : UTC 2013-02-06 06:45:57
Writing application                      : mkvmerge v5.8.0 ('No Sleep / Pillow') built on Sep  2 2012 15:37:04
Writing library                          : libebml v1.2.3 + libmatroska v1.3.0
Video
ID                                       : 1
Format                                   : AVC
Format/Info                              : Advanced Video Codec
Format profile                           : [url=mailto:[email protected]][email protected][/url]
Format settings, CABAC                   : Yes
Format settings, ReFrames                : 3 frames
Muxing mode                              : Header stripping
Codec ID                                 : V_MPEG4/ISO/AVC
Duration                                 : 2h 16mn
Bit rate mode                            : Variable
Bit rate                                 : 2 294 Kbps
Maximum bit rate                         : 40.0 Mbps
Width                                    : 1 024 pixels
Height                                   : 560 pixels
Display aspect ratio                     : 1.85:1
Frame rate mode                          : Constant
Frame rate                               : 25.000 fps
Color space                              : YUV
Chroma subsampling                       : 4:2:0
Bit depth                                : 8 bits
Scan type                                : Progressive
Bits/(Pixel*Frame)                       : 0.160
Stream size                              : 2.12 GiB (73%)
Title                                    : The Flight of the Phoenix (1965) HDTVRip by Poseydonbond
Writing library                          : x264 core 129 r2230 1cffe9f
Encoding settings                        : cabac=1 / ref=4 / deblock=1:-3:-3 / analyse=0x3:0x133 / me=hex / subme=10 / psy=1 / psy_rd=1.00:0.00 / mixed_ref=1 / me_range=16 / chroma_me=1 / trellis=2 / 8x8dct=1 / cqm=0 / deadzone=21,11 / fast_pskip=0 / chroma_qp_offset=-2 / threads=2 / lookahead_threads=1 / sliced_threads=0 / slices=4 / nr=0 / decimate=1 / interlaced=0 / bluray_compat=0 / constrained_intra=0 / bframes=3 / b_pyramid=1 / b_adapt=2 / b_bias=0 / direct=3 / weightb=1 / open_gop=0 / weightp=2 / keyint=24 / keyint_min=2 / scenecut=40 / intra_refresh=0 / rc_lookahead=24 / rc=2pass / mbtree=1 / bitrate=2294 / ratetol=1.0 / qcomp=0.60 / qpmin=10 / qpmax=51 / qpstep=4 / cplxblur=20.0 / qblur=0.5 / vbv_maxrate=40000 / vbv_bufsize=30000 / nal_hrd=vbr / ip_ratio=1.40 / aq=1:1.00
Language                                 : English
Default                                  : Yes
Forced                                   : No
Audio #1
ID                                       : 2
Format                                   : AC-3
Format/Info                              : Audio Coding 3
Mode extension                           : CM (complete main)
Format settings, Endianness              : Big
Muxing mode                              : Header stripping
Codec ID                                 : A_AC3
Duration                                 : 2h 16mn
Bit rate mode                            : Constant
Bit rate                                 : 192 Kbps
Channel(s)                               : 2 channels
Channel positions                        : Front: L R
Sampling rate                            : 48.0 KHz
Bit depth                                : 16 bits
Compression mode                         : Lossy
Stream size                              : 187 MiB (6%)
Title                                    : MVO (OPT) Russia AC3 2/0
Language                                 : Russian
Default                                  : Yes
Forced                                   : No
Audio #2
ID                                       : 3
Format                                   : AC-3
Format/Info                              : Audio Coding 3
Mode extension                           : CM (complete main)
Format settings, Endianness              : Big
Muxing mode                              : Header stripping
Codec ID                                 : A_AC3
Duration                                 : 2h 16mn
Bit rate mode                            : Constant
Bit rate                                 : 192 Kbps
Channel(s)                               : 2 channels
Channel positions                        : Front: L R
Sampling rate                            : 48.0 KHz
Bit depth                                : 16 bits
Compression mode                         : Lossy
Stream size                              : 187 MiB (6%)
Title                                    : DVO Russia AC3 2/0
Language                                 : Russian
Default                                  : No
Forced                                   : No
Audio #3
ID                                       : 4
Format                                   : AC-3
Format/Info                              : Audio Coding 3
Format profile                           : Dolby Digital
Mode extension                           : CM (complete main)
Format settings, Endianness              : Big
Muxing mode                              : Header stripping
Codec ID                                 : A_AC3
Duration                                 : 2h 16mn
Bit rate mode                            : Constant
Bit rate                                 : 384 Kbps
Channel(s)                               : 2 channels
Channel positions                        : Front: L R
Sampling rate                            : 48.0 KHz
Bit depth                                : 16 bits
Compression mode                         : Lossy
Stream size                              : 374 MiB (13%)
Title                                    : ORG English AC3 2/0
Language                                 : English
Default                                  : No
Forced                                   : No
Text #1
ID                                       : 5
Format                                   : UTF-8
Codec ID                                 : S_TEXT/UTF8
Codec ID/Info                            : UTF-8 Plain Text
Title                                    : Subtitles SRT Russia
Language                                 : Russian
Default                                  : Yes
Forced                                   : No
Text #2
ID                                       : 6
Format                                   : UTF-8
Codec ID                                 : S_TEXT/UTF8
Codec ID/Info                            : UTF-8 Plain Text
Title                                    : Subtitles SRT English
Language                                 : English
Default                                  : No
Forced                                   : No
-Скриншоты:
         
-Время раздачи: 24/7 (до первых сидов, далее по возможности)
Вне форума [Профиль] [ЛС]
Показать сообщения:    
Ответить на тему

Текущее время: Сегодня 22:52

Часовой пояс: GMT + 3



Вы не можете начинать темы
Вы не можете отвечать на сообщения
Вы не можете редактировать свои сообщения
Вы не можете удалять свои сообщения
Вы не можете голосовать в опросах
Вы не можете прикреплять файлы к сообщениям
Вы не можете скачивать файлы