Сегодня идет свободное скачивание без начисления Download

Ванда Невада / Wanda Nevada (1979) [H.264] BDRip

Ответить на тему
 
Автор
Сообщение

Omen ®

Стаж: 4 года 1 месяц

Сообщений: 194394

Торрент-статистика

Пост 08-Фев-2013 21:16

[Цитировать]

-Ванда Невада / Wanda Nevada (1979) BDRip- Русское название: Ванда Невада
Оригинальное название: Wanda Nevada
Выпущено: США
Год выпуска: 1979
Жанр: Мелодрама, комедия, детектив, вестерн
Режиссер: Питер Фонда
Сценарий: Дэннис Хакин
Актеры: Питер Фонда, Брук Шилдс, Фиона Льюис, Люк Аскью, Тед Маркленд, Северн Дарден, Пол Фикс, Генри Фонда, Ларри Голден, Джон Денос и др...
Описание фильма: Рассказ об искателе приключений по имени Бодрей Демерилл, который выигрывает в покер молодую сиротку по имени Ванда и берет ее с собой в путешествие к Большому Каньону на поиски золота. Их по пятам преследуют бандиты. Это будет нелегкий путь к сокровищам и еще более тяжелый обратно...

Дата мировой премьеры: 22 января 1994
Продолжительность: 01:47:24
Перевод: Двуголосый закадровый (профессиональный)
Субтитры: Отсутствуют
Видеокодек: MPEG4 AVC / H.264
Битрейт видео: ~2330 Kbps
Размер кадра: 1024х558
Качество видео: BDRip (Рип с BD-Remux/1080p)
Аудио #1: Русский, AC3 Dolby Digital, 2/0 (L,R) ch, ~192 kbps, 48 kHz | DVO (НТВ+)
Аудио #2: Английский, AC3 Dolby Digital, 2/0 (L,R) ch, ~384 kbps, 48 kHz | Original
Сохранена навигация по главам-

Медиа Инфо

Код:
General
Unique ID                                : 209760544711813871460165402873339202101 (0x9DCE6952E56EF2B9B653D36B55464A35)
Complete name                            : C:\...\Wanda.Nevada.1979.DUAL.BDRip.H.264.AC3.Poseydonbond.mkv
Format                                   : Matroska
Format version                           : Version 2
File size                                : 2.18 GiB
Duration                                 : 1h 47mn
Overall bit rate mode                    : Variable
Overall bit rate                         : 2 907 Kbps
Encoded date                             : UTC 2013-02-07 17:15:02
Writing application                      : mkvmerge v5.8.0 ('No Sleep / Pillow') built on Sep  2 2012 15:37:04
Writing library                          : libebml v1.2.3 + libmatroska v1.3.0
Video
ID                                       : 1
Format                                   : AVC
Format/Info                              : Advanced Video Codec
Format profile                           : [url=mailto:[email protected]][email protected][/url]
Format settings, CABAC                   : Yes
Format settings, ReFrames                : 3 frames
Muxing mode                              : Header stripping
Codec ID                                 : V_MPEG4/ISO/AVC
Duration                                 : 1h 47mn
Bit rate mode                            : Variable
Bit rate                                 : 2 330 Kbps
Maximum bit rate                         : 40.0 Mbps
Width                                    : 1 024 pixels
Height                                   : 558 pixels
Display aspect ratio                     : 1.85:1
Frame rate mode                          : Constant
Frame rate                               : 23.976 fps
Color space                              : YUV
Chroma subsampling                       : 4:2:0
Bit depth                                : 8 bits
Scan type                                : Progressive
Bits/(Pixel*Frame)                       : 0.170
Stream size                              : 1.71 GiB (78%)
Title                                    : Wanda.Nevada.1979.BDRip.H.264.Poseydonbond
Writing library                          : x264 core 129 r2245 bc13772
Encoding settings                        : cabac=1 / ref=4 / deblock=1:-3:-3 / analyse=0x3:0x133 / me=hex / subme=10 / psy=1 / psy_rd=1.00:0.00 / mixed_ref=1 / me_range=16 / chroma_me=1 / trellis=2 / 8x8dct=1 / cqm=0 / deadzone=21,11 / fast_pskip=0 / chroma_qp_offset=-2 / threads=2 / lookahead_threads=1 / sliced_threads=0 / slices=4 / nr=0 / decimate=1 / interlaced=0 / bluray_compat=0 / constrained_intra=0 / bframes=3 / b_pyramid=1 / b_adapt=2 / b_bias=0 / direct=3 / weightb=1 / open_gop=0 / weightp=2 / keyint=23 / keyint_min=1 / scenecut=40 / intra_refresh=0 / rc_lookahead=23 / rc=2pass / mbtree=1 / bitrate=2330 / ratetol=1.0 / qcomp=0.60 / qpmin=10 / qpmax=51 / qpstep=4 / cplxblur=20.0 / qblur=0.5 / vbv_maxrate=40000 / vbv_bufsize=30000 / nal_hrd=vbr / ip_ratio=1.40 / aq=1:1.00
Language                                 : English
Default                                  : Yes
Forced                                   : No
Audio #1
ID                                       : 2
Format                                   : AC-3
Format/Info                              : Audio Coding 3
Mode extension                           : CM (complete main)
Format settings, Endianness              : Big
Muxing mode                              : Header stripping
Codec ID                                 : A_AC3
Duration                                 : 1h 47mn
Bit rate mode                            : Constant
Bit rate                                 : 192 Kbps
Channel(s)                               : 2 channels
Channel positions                        : Front: L R
Sampling rate                            : 48.0 KHz
Bit depth                                : 16 bits
Compression mode                         : Lossy
Stream size                              : 147 MiB (7%)
Title                                    : AC3 2/0 DVO Russian
Language                                 : Russian
Default                                  : Yes
Forced                                   : No
Audio #2
ID                                       : 3
Format                                   : AC-3
Format/Info                              : Audio Coding 3
Mode extension                           : CM (complete main)
Format settings, Endianness              : Big
Muxing mode                              : Header stripping
Codec ID                                 : A_AC3
Duration                                 : 1h 47mn
Bit rate mode                            : Constant
Bit rate                                 : 384 Kbps
Channel(s)                               : 2 channels
Channel positions                        : Front: L R
Sampling rate                            : 48.0 KHz
Bit depth                                : 16 bits
Compression mode                         : Lossy
Stream size                              : 295 MiB (13%)
Title                                    : AC3 2/0 ORG English
Language                                 : English
Default                                  : No
Forced                                   : No
Menu
00:00:00.000                             : :Chapter 01
00:06:34.976                             : :Chapter 02
00:19:22.953                             : :Chapter 03
00:36:07.957                             : :Chapter 04
00:51:54.986                             : :Chapter 05
01:06:09.924                             : :Chapter 06
01:15:15.928                             : :Chapter 07
01:21:11.950                             : :Chapter 08
01:27:41.923                             : :Chapter 09
01:30:55.992                             : :Chapter 10
01:36:16.896                             : :Chapter 11
01:40:47.958                             : :Chapter 12
-Скриншоты:
         
-

Ещё скриншоты:

         
-Время раздачи: 24/7 (до первых сидов, далее по возможности)-
Вне форума [Профиль] [ЛС]
Показать сообщения:    
Ответить на тему

Текущее время: Сегодня 15:06

Часовой пояс: GMT + 3



Вы не можете начинать темы
Вы не можете отвечать на сообщения
Вы не можете редактировать свои сообщения
Вы не можете удалять свои сообщения
Вы не можете голосовать в опросах
Вы не можете прикреплять файлы к сообщениям
Вы не можете скачивать файлы