Сегодня идет свободное скачивание без начисления Download

Скандал / Scandalo (Сальваторе Сампери) (1976,Драма) DVDRip

Ответить на тему
 
Автор
Сообщение

Витек1 ®

Пол:

Стаж: 3 года 11 месяцев

Сообщений: 459

Откуда: Житомир

Торрент-статистика

Пост 09-Фев-2013 21:35

[Цитировать]

Скандал / Scandalo -«The more erotic it gets... the more beautiful it feels.» Русское название: Скандал
Оригинальное название: Scandalo
Производство: Италия / Clesi Cinematografica
Год выпуска: 1976
Жанр: Драма
Описание фильма:
Франция, 1940 год, самое начало гитлеровского вторжения, уже идут бои на линии Мажино. Хозяйка аптеки в провинциальном французском городишке (блистательная Лиза Гастони) внезапно и без особого желания заводит любовника в лице своего наемного служащего Армана (Франко Неро), который, можно сказать, укрылся в аптеке от призыва в армию. Вскоре Арман превращается для Элиан, лишенной нормальных мужских ласк со стороны своего мужа-профессора, погруженного в мир литературы и искусства, в натурального секс-мастера, а она в его сексуальную рабыню. Кто бы мог подумать, что добропорядочная жена, мать и хозяйка станет разгуливать голой по улице спящего городка по прихоти своего монстра-любовника? Дальше - больше, и безжалостный взгляд "минотавра" падает на невинную дочь хозяйки...
Режиссер: Сальваторе Сампери
Актеры: Франко Неро, Лиза Гастони, Раймон Пеллегрен, Андреа Ферреоль, Клаудиа Марсани, Антонио Альтовити, Карла Кало, Франко Патано, Лаура Николсон, Джон Стэйси
Продолжительность: 01:41:52
Перевод: Одноголосый закадровый

Дата мировой премьеры: 22 октября 1976
Видеокодек: Xvid
Битрейт видео: ~1789 Кбит/сек
Размер кадра: 704x400
Качество видео: DVDRip
Аудиокодек: AC3 2 канала
Битрейт аудио: 192 Кбит/сек

MediaInfo:

Общее
Полное имя : Scandalo.1976.DVDRip.avi
Формат : AVI
Формат/Информация : Audio Video Interleave
Размер файла : 1,42 Гбайт
Продолжительность : 1 ч. 41 м.
Общий поток : 1991 Кбит/сек
Программа кодирования : VirtualDubMod 1.5.10.1 (build 2366/release)
Библиотека кодирования : VirtualDubMod build 2366/release
Примечание : rip Milligan - http://asiamorte.com
Видео
Идентификатор : 0
Формат : MPEG-4 Visual
Профиль формата : [email protected]
Параметр BVOP формата : Нет
Параметр QPel формата : Нет
Параметр GMC формата : Без точки перехода
Параметр матрицы формата : Default (H.263)
Идентификатор кодека : XVID
Идентификатор кодека/Подсказка : XviD
Продолжительность : 1 ч. 41 м.
Битрейт : 1789 Кбит/сек
Ширина : 704 пикселя
Высота : 400 пикселей
Соотношение сторон : 16:9
Частота кадров : 25,000 кадров/сек
Цветовое пространство : YUV
Субдискретизация насыщенности : 4:2:0
Битовая глубина : 8 бит
Тип развёртки : Прогрессивная
Метод сжатия : С потерями
Бит/(Пиксели*Кадры) : 0.254
Размер потока : 1,27 Гбайт (90%)
Библиотека кодирования : Lavc53.33.0
Аудио
Идентификатор : 1
Формат : AC-3
Формат/Информация : Audio Coding 3
Расширение режима : CM (complete main)
Параметр Endianness формата : Big
Идентификатор кодека : 2000
Продолжительность : 1 ч. 41 м.
Вид битрейта : Постоянный
Битрейт : 192 Кбит/сек
Каналы : 2 канала
Расположение каналов : Front: L R
Частота : 48,0 КГц
Битовая глубина : 16 бит
Метод сжатия : С потерями
Размер потока : 140 Мбайт (10%)
Выравнивание : Разделение по промежуткам
Продолжительность промежутка : 40 мс. (1,00 видеокадр)
Время предзагрузки промежутка : 500 мс.

Рейтинг MPAA:

Рейтинг R - Детям до 17 лет обязательно присутствие родителей

Рейтинг R получают фильмы, в содержании которых обязательно содержится материал, предназначенный только для взрослой аудитории. Родителям рекомендуется хорошо подумать, прежде чем посмотреть такой фильм вместе со своими детьми.
Фильм, получивший рейтинг R, скорее всего содержит сексуальные сцены, эпизоды с употреблением наркотиков, нецензурную брань, фрагменты с насилием и т.д.

Скриншоты

       
       

_________________
Скачал сам, дай скачать другому!!!Не забудь сказать -
Вне форума [Профиль] [ЛС]
Показать сообщения:    
Ответить на тему

Текущее время: Сегодня 17:38

Часовой пояс: GMT + 3



Вы не можете начинать темы
Вы не можете отвечать на сообщения
Вы не можете редактировать свои сообщения
Вы не можете удалять свои сообщения
Вы не можете голосовать в опросах
Вы не можете прикреплять файлы к сообщениям
Вы не можете скачивать файлы