Сегодня идет свободное скачивание без начисления Download

Нефтедобытчицы / Les petroleuses (1971) [H.264] DVDRip

Ответить на тему
 
Автор
Сообщение

Omen ®

Стаж: 4 года 1 месяц

Сообщений: 194390

Торрент-статистика

Пост 10-Фев-2013 12:52

[Цитировать]

-Нефтедобытчицы / Les petroleuses (1971) [H.264] DVDRip-«The West Ain't No Place for a Man»- Русское название: Нефтедобытчицы
Оригинальное название: Les petroleuses
Год выпуска: 1971
Жанр: Комедия, Вестерн
Страна: Франция, Великобритания, Италия, Испания
Производство: Copercines, Cooperativa Cinematografica, Films EGE, Francos Films, Hemdale Group, SNC, Vides Cinematografica
Описание фильма:
События этого комедийного вестерна разворачиваются в 1880 году во французском поселении в американском штате Нью-Мексико. Белокурая Луиза занимает особый статус в штате, она командует женской бандой, в которой, кроме нее еще четыре ее сестры. На этот раз им приглянулся земельный участок с неистощимыми запасами нефти.
Но у этой территории уже имелись хозяева — жгучая брюнетка крепко держащаяся в седле и к тому же превосходно владеющая кольтом фермерша Мари, а также ее четыре брата. Противоборство двух группировок привело к большому переполоху в маленьком городке, но, как и положено, в хорошем вестерне, все закончилось счастливым концом.
Режиссер: Кристиан-Жак
Сценарий: Мари-Анж Аньес, Даниэль Буланже
Актеры: Бриджит Бардо, Клаудия Кардинале, Майкл Дж. Поллард, Мишлин Прель, Мари-Анж Аньес, Анри Черняк, Оскар Дэвис, Рауль Дэлфоз, Френс Дуньяк, Жорж Беллер, Тереса Химпера, Пэтти Шепард,
Продолжительность: 01:30:45
Перевод: Многоголосый закадровый (Петербург 5-ый канал)
Субтитры: Отсутствуют

Дата мировой премьеры: 16 декабря 1971
Видеокодек: MPEG-4 AVC/H.264
Битрейт видео: ~2400 Кбит/сек
Размер кадра: 672x400
Качество видео: DVDRip
Аудиокодек: AC3 2.0
Битрейт аудио: 192 kbps

Реценция с кинопоиска от V.A.N.:

Отличнейший фильм! Две дивы: Бриджит Бардо и Клаудиа Кардинале в одном флаконе. Тёмненькая и светленькая… Что ещё надо для счастья? А для счастья нужен отличный сюжет — он в этом фильме имеется. Нужен юмор — здесь его хоть отбавляй. Хорошая актёрская игра? И такое имеется.
В итоге получается отличное кино. Да, не претендующее на звание шедевра, но эта задача и не стояла.
Куча забавных ситуация, красивые женщины, ни грамма пошлости, но местами здоровый эротизм, а ещё есть нефть, что собственно неудивительно, исходя из названия и женские драки, что всегда интересно.
В общем, наслаждайтесь просмотром.

MediaInfo:

Общее
Уникальный идентификатор : 176377395285625095871712581064840455560 (0x84B10CFB49E6DCC795714B7F37182588)
Полное имя : D:\Downloads\Нефтедобытчицы.mkv
Формат : Matroska
Версия формата : Version 2
Размер файла : 1,64 Гбайт
Продолжительность : 1 ч. 30 м.
Общий поток : 2593 Кбит/сек
Дата кодирования : UTC 2013-02-09 03:08:14
Программа кодирования : mkvmerge v5.7.0 ('The Whirlwind') built on Jul 29 2012 15:12:35
Библиотека кодирования : libebml v1.2.3 + libmatroska v1.3.0
Видео
Идентификатор : 1
Формат : AVC
Формат/Информация : Advanced Video Codec
Профиль формата : [url=mailto:[email protected]][email protected][/url]
Параметр CABAC формата : Да
Параметр ReFrames формата : 5 кадров
Режим смешивания : Header stripping
Идентификатор кодека : V_MPEG4/ISO/AVC
Продолжительность : 1 ч. 30 м.
Битрейт : 2400 Кбит/сек
Ширина : 672 пикселя
Высота : 400 пикселей
Соотношение сторон : 1,680
Режим частоты кадров : Постоянный
Частота кадров : 25,000 кадров/сек
Цветовое пространство : YUV
Субдискретизация насыщенности : 4:2:0
Битовая глубина : 8 бит
Тип развёртки : Прогрессивная
Бит/(Пиксели*Кадры) : 0.357
Размер потока : 1,49 Гбайт (91%)
Заголовок : Les petroleuses
Библиотека кодирования : x264 core 129 r2245 bc13772
Настройки программы : cabac=1 / ref=5 / deblock=1:0:0 / analyse=0x3:0x113 / me=umh / subme=8 / psy=1 / psy_rd=1.00:0.00 / mixed_ref=1 / me_range=16 / chroma_me=1 / trellis=1 / 8x8dct=1 / cqm=0 / deadzone=21,11 / fast_pskip=1 / chroma_qp_offset=-2 / threads=3 / lookahead_threads=1 / sliced_threads=0 / nr=0 / decimate=1 / interlaced=0 / bluray_compat=0 / constrained_intra=0 / bframes=3 / b_pyramid=2 / b_adapt=2 / b_bias=0 / direct=3 / weightb=1 / open_gop=0 / weightp=2 / keyint=250 / keyint_min=25 / scenecut=40 / intra_refresh=0 / rc_lookahead=50 / rc=2pass / mbtree=1 / bitrate=2400 / ratetol=1.0 / qcomp=0.60 / qpmin=0 / qpmax=69 / qpstep=4 / cplxblur=20.0 / qblur=0.5 / ip_ratio=1.40 / aq=1:1.00
Язык : French
Default : Да
Forced : Нет
Аудио
Идентификатор : 2
Формат : AC-3
Формат/Информация : Audio Coding 3
Расширение режима : CM (complete main)
Параметр Endianness формата : Big
Режим смешивания : Header stripping
Идентификатор кодека : A_AC3
Продолжительность : 1 ч. 30 м.
Вид битрейта : Постоянный
Битрейт : 192 Кбит/сек
Каналы : 2 канала
Расположение каналов : Front: L R
Частота : 48,0 КГц
Битовая глубина : 16 бит
Метод сжатия : С потерями
Размер потока : 125 Мбайт (7%)
Заголовок : Многоголосый закадровый, Петербург 5-ый канал
Язык : Russian
Default : Да
Forced : Нет
Скриншоты:                    
Вне форума [Профиль] [ЛС]
Показать сообщения:    
Ответить на тему

Текущее время: Сегодня 17:26

Часовой пояс: GMT + 3



Вы не можете начинать темы
Вы не можете отвечать на сообщения
Вы не можете редактировать свои сообщения
Вы не можете удалять свои сообщения
Вы не можете голосовать в опросах
Вы не можете прикреплять файлы к сообщениям
Вы не можете скачивать файлы