Сегодня идет свободное скачивание без начисления Download

От заката до рассвета / From Dusk Till Dawn (Роберт Родригес) (1996, Комедия, Триллер, Криминал) BDRip

Ответить на тему
 
Автор
Сообщение

Omen ®

Стаж: 4 года 1 месяц

Сообщений: 194390

Торрент-статистика

Пост 10-Фев-2013 21:02

[Цитировать]

От заката до рассвета / From Dusk Till Dawn - Русское название: От заката до рассвета
Оригинальное название: From Dusk Till Dawn
Год выпуска: 1996
Жанр: Комедия, Триллер, Криминал
Описание фильма:
Спасаясь от полиции после ограбления банка, два брата — грабителя берут в заложники священника и его детей. Около американской границы они решают провести ночь в придорожном баре. Тут-то всё и начинается…
Режиссер: Роберт Родригес
Актеры: Харви Кейтель, Джордж Клуни, Квентин Тарантино, Джульетт Льюис, Эрнест Лю, Сальма Хайек, Чич Марин, Дэнни Трехо, Том Савини, Фред Уильямсон и другие
Продолжительность: 01:47:50
Перевод: Одноголосый закадровый
Автор перевода: Дмитрий Пучков (Гоблин)

Видеокодек: Xvid
Битрейт видео: ~1539 kbps
Размер кадра: 720x400
Качество видео: BDRip
Аудиокодек: AC3 5.1
Битрейт аудио: ~384.00 kbps

MediaInfo

Общее
Полное имя : C:\Users\Danila\Desktop\Ot.zakata.1996.avi
Формат : AVI
Формат/Информация : Audio Video Interleave
Размер файла : 1,46 Гбайт
Продолжительность : 1 ч. 47 м.
Общий поток : 1933 Кбит/сек
Название фильма : От заката до рассвета / From Dusk Till Dawn
Режиссёр : zim2001
Программа кодирования : VirtualDubMod 1.5.10.2 (build 2540/release)
Правообладатель : torrents.ru
Видео
Идентификатор : 0
Формат : MPEG-4 Visual
Профиль формата : Advanced [email protected]
Параметр BVOP формата : 1
Параметр QPel формата : Нет
Параметр GMC формата : Без точки перехода
Параметр матрицы формата : Выборочная
Идентификатор кодека : XVID
Идентификатор кодека/Подсказка : XviD
Продолжительность : 1 ч. 47 м.
Битрейт : 1540 Кбит/сек
Ширина : 720 пикселей
Высота : 400 пикселей
Соотношение сторон : 16:9
Частота кадров : 23,976 кадра/сек
Цветовое пространство : YUV
Субдискретизация насыщенности : 4:2:0
Битовая глубина : 8 бит
Тип развёртки : Прогрессивная
Метод сжатия : С потерями
Бит/(Пиксели*Кадры) : 0.223
Размер потока : 1,16 Гбайт (80%)
Библиотека кодирования : XviD 1.2.1 (UTC 2008-12-04)
Аудио
Идентификатор : 1
Формат : AC-3
Формат/Информация : Audio Coding 3
Расширение режима : CM (complete main)
Параметр Endianness формата : Big
Идентификатор кодека : 2000
Продолжительность : 1 ч. 47 м.
Вид битрейта : Постоянный
Битрейт : 384 Кбит/сек
Каналы : 6 каналов
Расположение каналов : Front: L C R, Side: L R, LFE
Частота : 48,0 КГц
Битовая глубина : 16 бит
Метод сжатия : С потерями
Размер потока : 296 Мбайт (20%)
Выравнивание : Разделение по промежуткам
Продолжительность промежутка : 42 мс. (1,00 видеокадр)
Время предзагрузки промежутка : 500 мс.
Скриншоты:
     
       

Рецензия, отзыв о фильме

Фильмы Роберта Родригеса всегда пользовались большим успехом. Данный фильм можно смело отнести к лучшей работе режиссера. Дело тут обстоит так, что фильму «От заката до рассвета» можно смело присваивать звание культового фильма про вампиров. В далеких девяностых Родригес представил на суд зрителей свой новый фильм. В этом фильме были все составляющие хорошего кино: драма, элементы комедии, немного от триллера и изрядная порция ужаса.
Сюжет в фильме проработан на все сто. Начинаешь смотреть и совершенно не представляешь, что тебя ждет впереди, а именно встреча с ужасными кровососами. За такой поворот сюжета низкий поклон режиссеру. Роберт смог очень точно создать атмосферу ужаса и паники. Гениально!
Актеры в фильме просто великолепны, причем все без исключения. Отдельно хочу отметить игру Джорджа Клуни и Квентина Тарантино. Клуни очень точно вписался в роль бандюгана с большим стажем, я не могу представить никого другого на роль Сета Геко. Тарантино же предстал перед зрителями в роли неуравновешенного психопата и убийцы, внешность которого вызывала одновременно и ужас, и восторг.
Музыкальные композиции в фильме просто потрясающие, без них трудно представить фильм. Особенно порадовала группа «ZZ-TOP», просто сносит башню.
Я считаю «От заката до рассвета» настоящим вампирским кино, которое как хорошее вино не стареет с годами.
P.S. Роберта Родригес снял по-настоящему культовый фильм про вампиров. Браво, Роберт!
10 из 10
Вне форума [Профиль] [ЛС]
Показать сообщения:    
Ответить на тему

Текущее время: Сегодня 14:57

Часовой пояс: GMT + 3



Вы не можете начинать темы
Вы не можете отвечать на сообщения
Вы не можете редактировать свои сообщения
Вы не можете удалять свои сообщения
Вы не можете голосовать в опросах
Вы не можете прикреплять файлы к сообщениям
Вы не можете скачивать файлы