Сегодня идет свободное скачивание без начисления Download

Николай и Александра / Nicholas and Alexandra (1971) BDRip

Ответить на тему
 
Автор
Сообщение

UndegraundMen ®

Стаж: 4 года 7 месяцев

Сообщений: 26499

Торрент-статистика

Пост 13-Фев-2013 07:20

[Цитировать]

-Николай и Александра / Nicholas and Alexandra (1971) BDRip Русское название: Николай и Александра
Оригинальное название: Nicholas and Alexandra
Год выпуска: 1971
Жанр: Драма, Военный
Описание фильма: По книге Роберта Мэсси. Костюмная драма о трагической судьбе семьи последнего русского императора Николая II и о событиях, происходивших в начале XX века, повлиявших в дальнейшем на историю не только России, но и всего мира. Александра наконец-то рожает наследника Алексея, но это радостное событие омрачается мрачным диагнозом врачей. У малыша - гемофилия.
Режиссер: Франклин Дж. Шаффнер
Актеры: Майкл Джэйстон, Джанет Сузман, Родрик Ноубл, Аня Марсон, Линн Фредерик, Кендес Гленденнинг, Фиона Фуллертон, Гарри Эндрюс, Айрин Уорт, Том Бэйкер ...
Продолжительность: 03:08:26
Перевод: Многоголосый закадровый

Дата мировой премьеры: 29 ноября 1971
Видеокодек: Xvid
Битрейт видео: ~1522 kbps
Размер кадра: 720x304
Качество видео: BDRip
Аудиокодек: MP3
Битрейт аудио: 128.00 kbps
&

MediaInfo

Общее
Полное имя : D:\Nicholas and Alexandra.1971.BDRip.avi
Формат : AVI
Формат/Информация : Audio Video Interleave
Профиль формата : OpenDML
Настройки формата : rec
Размер файла : 2,18 Гбайт
Продолжительность : 3 ч. 8 м.
Общий поток : 1654 Кбит/сек
Название фильма : Николай и Александра / Nicholas and Alexandra (1971) BDRip rip by Rulya74
Программа кодирования : AVI-Mux GUI 1.17.8.3, Feb 16 201019:42:50
Видео
Идентификатор : 0
Формат : MPEG-4 Visual
Профиль формата : Advanced [email protected]
Параметр BVOP формата : 1
Параметр QPel формата : Нет
Параметр GMC формата : Без точки перехода
Параметр матрицы формата : Выборочная
Режим смешивания : Сжатый битовый поток
Идентификатор кодека : XVID
Идентификатор кодека/Подсказка : XviD
Продолжительность : 3 ч. 8 м.
Битрейт : 1522 Кбит/сек
Ширина : 720 пикселей
Высота : 304 пикселя
Соотношение сторон : 2,35:1
Частота кадров : 23,976 кадра/сек
Цветовое пространство : YUV
Субдискретизация насыщенности : 4:2:0
Битовая глубина : 8 бит
Тип развёртки : Прогрессивная
Метод сжатия : С потерями
Бит/(Пиксели*Кадры) : 0.290
Размер потока : 2,00 Гбайт (92%)
Библиотека кодирования : XviD 65
Аудио
Идентификатор : 1
Формат : MPEG Audio
Версия формата : Version 1
Профиль формата : Layer 3
Идентификатор кодека : 55
Идентификатор кодека/Подсказка : MP3
Продолжительность : 3 ч. 8 м.
Вид битрейта : Постоянный
Битрейт : 128 Кбит/сек
Каналы : 2 канала
Частота : 44,1 КГц
Метод сжатия : С потерями
Размер потока : 173 Мбайт (8%)
Выравнивание : Соединение по промежуткам
Продолжительность промежутка : 551 мс. (13,20 видеокадров)
Время предзагрузки промежутка : 209 мс.
Заголовок : Профессиональный (многоголосый закадровый)
Скриншоты:
           
Время раздачи: с 8:00 до 23:00
Вне форума [Профиль] [ЛС]
Похожие темы
Форум Тема Автор Торрент Отв. Посл. сообщение
./templates/default/images/folder_dl.gif Приключения, детектив, боевик, триллер Лесков Николай, Чехов Антон, Зарин Андрей, Бунин Иван, Орловец Пётр - Литературный аудиоальманах 1, Классика русского детективного рассказа № 1 [Александр Бордуков, Алексей Борзунов, 2011 г., 192 kbps, MP3] Omen
1 | 0

0 | 1252

13

2014-04-15 23:26
Omen Последнее
./templates/default/images/folder_dl.gif Обучающая и научно-популярная литература Сыров Василий Николаевич - Массовая культура: Мифы и реальность [Иван Калинин, (ЛИ), 192 kbps, MP3] Omen
1 | 0

0 | 724

5

2014-10-17 14:25
Omen Последнее
./templates/default/images/folder_dl.gif Психология, Тренинг, Саморазвитие Николас Эпли | Интуиция. Как понять, что чувствуют, думают и хотят другие люди (2015) [FB2] Omen
1 | 0

0 | 490

7

2015-04-30 10:33
Omen Последнее
./templates/default/images/folder_dl.gif Сатира, Юмор Николай Каланов | Сборник морских анекдотов (2015) [FB2, EPUB] Omen
1 | 0

1 | 833

4

2015-05-28 23:33
uschakov.yura Последнее
./templates/default/images/folder_dl.gif Разное Николай Норд | Практикум реального колдовства. Азбука ведьм (2015) [FB2] Omen
1 | 0

0 | 1028

9

2015-07-18 19:23
Omen Последнее
./templates/default/images/folder_dl.gif Историческая литература Бушков Александр - Дом с привидениями. Хроника мутного времени [Савицкий Николай, 2013 г., 96 kbps, MP3] Omen
1 | 0

0 | 237

4

2015-12-23 12:00
Omen Последнее
./templates/default/images/folder_dl.gif T Новинки (BD|HDTV|DVD) Темная башня / The Dark Tower (Николай Арсель) [2017, Ужасы, Фантастика, Фэнтези, Боевик, Приключения, Вестерн, TS 720p] Omen
3 | 0

0 | 283

22

2016-03-09 03:53
Omen Последнее
./templates/default/images/folder_dl.gif Историческая литература Стариков Николай - Ликвидация России. Кто помог красным победить в Гражданской войне? [Александр Карлов, 2015 г., 72-88 kbps, MP3] Omen
1 | 0

0 | 496

10

2016-04-03 21:33
Omen Последнее
./templates/default/images/folder_dl.gif Фантастика, фэнтези, ужасы, мистика Желунов Николай - Дозоры: Дозоры не работают вместе [Смекалов Валерий, 2016 г., 128 kbps, MP3] Omen
1 | 0

0 | 458

6

2016-05-24 18:00
Omen Последнее
./templates/default/images/folder_dl.gif Фантастика, фэнтези, ужасы, мистика Андреев Николай - Звездный взвод 01, Лучшие из мертвых [Васенёв Андрей, 2016 г., 96 kbps, MP3] Omen
1 | 0

0 | 454

3

2016-08-07 01:00
Omen Последнее
Показать сообщения:    
Ответить на тему

Текущее время: Сегодня 15:13

Часовой пояс: GMT + 3



Вы не можете начинать темы
Вы не можете отвечать на сообщения
Вы не можете редактировать свои сообщения
Вы не можете удалять свои сообщения
Вы не можете голосовать в опросах
Вы не можете прикреплять файлы к сообщениям
Вы не можете скачивать файлы