Сегодня идет свободное скачивание без начисления Download

Николай и Александра / Nicholas and Alexandra (1971) BDRip

Ответить на тему
 
Автор
Сообщение

UndegraundMen ®

Стаж: 4 года 1 месяц

Сообщений: 26522

Торрент-статистика

Пост 13-Фев-2013 07:20

[Цитировать]

-Николай и Александра / Nicholas and Alexandra (1971) BDRip Русское название: Николай и Александра
Оригинальное название: Nicholas and Alexandra
Год выпуска: 1971
Жанр: Драма, Военный
Описание фильма: По книге Роберта Мэсси. Костюмная драма о трагической судьбе семьи последнего русского императора Николая II и о событиях, происходивших в начале XX века, повлиявших в дальнейшем на историю не только России, но и всего мира. Александра наконец-то рожает наследника Алексея, но это радостное событие омрачается мрачным диагнозом врачей. У малыша - гемофилия.
Режиссер: Франклин Дж. Шаффнер
Актеры: Майкл Джэйстон, Джанет Сузман, Родрик Ноубл, Аня Марсон, Линн Фредерик, Кендес Гленденнинг, Фиона Фуллертон, Гарри Эндрюс, Айрин Уорт, Том Бэйкер ...
Продолжительность: 03:08:26
Перевод: Многоголосый закадровый

Дата мировой премьеры: 29 ноября 1971
Видеокодек: Xvid
Битрейт видео: ~1522 kbps
Размер кадра: 720x304
Качество видео: BDRip
Аудиокодек: MP3
Битрейт аудио: 128.00 kbps
&

MediaInfo

Общее
Полное имя : D:\Nicholas and Alexandra.1971.BDRip.avi
Формат : AVI
Формат/Информация : Audio Video Interleave
Профиль формата : OpenDML
Настройки формата : rec
Размер файла : 2,18 Гбайт
Продолжительность : 3 ч. 8 м.
Общий поток : 1654 Кбит/сек
Название фильма : Николай и Александра / Nicholas and Alexandra (1971) BDRip rip by Rulya74
Программа кодирования : AVI-Mux GUI 1.17.8.3, Feb 16 201019:42:50
Видео
Идентификатор : 0
Формат : MPEG-4 Visual
Профиль формата : Advanced Simple@L5
Параметр BVOP формата : 1
Параметр QPel формата : Нет
Параметр GMC формата : Без точки перехода
Параметр матрицы формата : Выборочная
Режим смешивания : Сжатый битовый поток
Идентификатор кодека : XVID
Идентификатор кодека/Подсказка : XviD
Продолжительность : 3 ч. 8 м.
Битрейт : 1522 Кбит/сек
Ширина : 720 пикселей
Высота : 304 пикселя
Соотношение сторон : 2,35:1
Частота кадров : 23,976 кадра/сек
Цветовое пространство : YUV
Субдискретизация насыщенности : 4:2:0
Битовая глубина : 8 бит
Тип развёртки : Прогрессивная
Метод сжатия : С потерями
Бит/(Пиксели*Кадры) : 0.290
Размер потока : 2,00 Гбайт (92%)
Библиотека кодирования : XviD 65
Аудио
Идентификатор : 1
Формат : MPEG Audio
Версия формата : Version 1
Профиль формата : Layer 3
Идентификатор кодека : 55
Идентификатор кодека/Подсказка : MP3
Продолжительность : 3 ч. 8 м.
Вид битрейта : Постоянный
Битрейт : 128 Кбит/сек
Каналы : 2 канала
Частота : 44,1 КГц
Метод сжатия : С потерями
Размер потока : 173 Мбайт (8%)
Выравнивание : Соединение по промежуткам
Продолжительность промежутка : 551 мс. (13,20 видеокадров)
Время предзагрузки промежутка : 209 мс.
Заголовок : Профессиональный (многоголосый закадровый)
Скриншоты:
           
Время раздачи: с 8:00 до 23:00
Вне форума [Профиль] [ЛС]
Похожие темы
Форум Тема Автор Торрент Отв. Посл. сообщение
./templates/default/images/folder_dl.gif Художественная литература Николай Стариков - Кто финансирует развал России. От декабристов до моджахедов [2012] [MP3] Omen
1 | 0

0 | 1111

9

2012-10-13 15:57
Omen Последнее
./templates/default/images/folder_dl.gif Разное Николай Стариков | Сталин. Вспоминаем вместе [2012] [MP3] sashau
1 | 0

0 | 542

9

2013-01-06 14:43
sashau Последнее
./templates/default/images/folder_dl.gif Обучающее видео Ягодкин Николай | Техника запоминания 100 иностранных слов в час [2012] PCRec UndegraundMen
1 | 0

10 | 6804

126

2015-10-20 15:48
Геннадич Последнее
./templates/default/images/folder_dl.gif Обучающее видео Николай Ягодкин | Полный пакет эффективных технологий (2013) [DVDRip] Omen
1 | 0

0 | 4023

88

2014-03-18 18:51
Omen Последнее
./templates/default/images/folder_dl.gif Обучающее видео Ягодкин Николай и Сурков Андрей | Скорочтение 2.0 (2014) CamRip Omen
1 | 0

0 | 1731

88

2014-08-11 12:37
Omen Последнее
./templates/default/images/folder_dl.gif Обучающая и научно-популярная литература Сыров Василий Николаевич - Массовая культура: Мифы и реальность [Иван Калинин, (ЛИ), 192 kbps, MP3] Omen
1 | 0

0 | 525

4

2014-10-17 14:25
Omen Последнее
./templates/default/images/folder_dl.gif Приключения, детектив, боевик, триллер Николай Леонов, Алексей Макеев | Подставной киллер (2014) [MP3] Omen
1 | 0

0 | 511

5

2014-12-07 20:31
Omen Последнее
./templates/default/images/folder_dl.gif Техническая и научно-популярная литература Екатерина Иванова, Николай Николаев | Большая иллюстрированная энциклопедия живописи (2011) [PDF] Omen
1 | 0

0 | 802

28

2015-01-25 23:21
Omen Последнее
./templates/default/images/folder_dl.gif Книги для IPhone, IPod, Apple Стариков Николай, Беляев Дмитрий - Россия. Крым. История. [Стариков Николай, Беляев Дмитрий, 2015, История, публицистика, 64 kbps], M4B VHS
1 | 0

0 | 703

4

2015-05-13 22:53
VHS Последнее
./templates/default/images/folder_dl.gif Разное Николай Норд | Практикум реального колдовства. Азбука ведьм (2015) [FB2] Omen
1 | 0

0 | 674

8

2015-07-18 19:23
Omen Последнее
Показать сообщения:    
Ответить на тему

Текущее время: Сегодня 10:44

Часовой пояс: GMT + 3



Вы не можете начинать темы
Вы не можете отвечать на сообщения
Вы не можете редактировать свои сообщения
Вы не можете удалять свои сообщения
Вы не можете голосовать в опросах
Вы не можете прикреплять файлы к сообщениям
Вы не можете скачивать файлы