Сегодня идет свободное скачивание без начисления Download

Николай и Александра / Nicholas and Alexandra (1971) BDRip

Ответить на тему
 
Автор
Сообщение

UndegraundMen ®

Стаж: 4 года

Сообщений: 26522

Торрент-статистика

Пост 13-Фев-2013 07:20

[Цитировать]

-Николай и Александра / Nicholas and Alexandra (1971) BDRip Русское название: Николай и Александра
Оригинальное название: Nicholas and Alexandra
Год выпуска: 1971
Жанр: Драма, Военный
Описание фильма: По книге Роберта Мэсси. Костюмная драма о трагической судьбе семьи последнего русского императора Николая II и о событиях, происходивших в начале XX века, повлиявших в дальнейшем на историю не только России, но и всего мира. Александра наконец-то рожает наследника Алексея, но это радостное событие омрачается мрачным диагнозом врачей. У малыша - гемофилия.
Режиссер: Франклин Дж. Шаффнер
Актеры: Майкл Джэйстон, Джанет Сузман, Родрик Ноубл, Аня Марсон, Линн Фредерик, Кендес Гленденнинг, Фиона Фуллертон, Гарри Эндрюс, Айрин Уорт, Том Бэйкер ...
Продолжительность: 03:08:26
Перевод: Многоголосый закадровый

Дата мировой премьеры: 29 ноября 1971
Видеокодек: Xvid
Битрейт видео: ~1522 kbps
Размер кадра: 720x304
Качество видео: BDRip
Аудиокодек: MP3
Битрейт аудио: 128.00 kbps
&

MediaInfo

Общее
Полное имя : D:\Nicholas and Alexandra.1971.BDRip.avi
Формат : AVI
Формат/Информация : Audio Video Interleave
Профиль формата : OpenDML
Настройки формата : rec
Размер файла : 2,18 Гбайт
Продолжительность : 3 ч. 8 м.
Общий поток : 1654 Кбит/сек
Название фильма : Николай и Александра / Nicholas and Alexandra (1971) BDRip rip by Rulya74
Программа кодирования : AVI-Mux GUI 1.17.8.3, Feb 16 201019:42:50
Видео
Идентификатор : 0
Формат : MPEG-4 Visual
Профиль формата : Advanced [email protected]
Параметр BVOP формата : 1
Параметр QPel формата : Нет
Параметр GMC формата : Без точки перехода
Параметр матрицы формата : Выборочная
Режим смешивания : Сжатый битовый поток
Идентификатор кодека : XVID
Идентификатор кодека/Подсказка : XviD
Продолжительность : 3 ч. 8 м.
Битрейт : 1522 Кбит/сек
Ширина : 720 пикселей
Высота : 304 пикселя
Соотношение сторон : 2,35:1
Частота кадров : 23,976 кадра/сек
Цветовое пространство : YUV
Субдискретизация насыщенности : 4:2:0
Битовая глубина : 8 бит
Тип развёртки : Прогрессивная
Метод сжатия : С потерями
Бит/(Пиксели*Кадры) : 0.290
Размер потока : 2,00 Гбайт (92%)
Библиотека кодирования : XviD 65
Аудио
Идентификатор : 1
Формат : MPEG Audio
Версия формата : Version 1
Профиль формата : Layer 3
Идентификатор кодека : 55
Идентификатор кодека/Подсказка : MP3
Продолжительность : 3 ч. 8 м.
Вид битрейта : Постоянный
Битрейт : 128 Кбит/сек
Каналы : 2 канала
Частота : 44,1 КГц
Метод сжатия : С потерями
Размер потока : 173 Мбайт (8%)
Выравнивание : Соединение по промежуткам
Продолжительность промежутка : 551 мс. (13,20 видеокадров)
Время предзагрузки промежутка : 209 мс.
Заголовок : Профессиональный (многоголосый закадровый)
Скриншоты:
           
Время раздачи: с 8:00 до 23:00
Вне форума [Профиль] [ЛС]
Похожие темы
Форум Тема Автор Торрент Отв. Посл. сообщение
./templates/default/images/folder_dl.gif Обучающее видео Алексей Толкачев и Николай Мрочковский - Персональный мотиватор [2011] PCRec Omen
0 | 1

0 | 417

24

2012-07-20 19:37
Omen Последнее
./templates/default/images/folder_dl.gif Обучающее видео Ягодкин Николай | Техника запоминания 100 иностранных слов в час [2012] PCRec UndegraundMen
2 | 0

10 | 6581

126

2015-10-20 15:48
Геннадич Последнее
./templates/default/images/folder_dl.gif Rock Николай Носков - Без названия (2012) [FLAC|Lossless] UndegraundMen
0 | 1

0 | 2185

1

2013-06-27 03:09
UndegraundMen Последнее
./templates/default/images/folder_dl.gif Фантастика, фэнтези, ужасы, мистика Брайдер Юрий, Чадович Николай - Тропа 1, Евангелие от Тимофея [Serregey, (ЛИ), 2013 г., 128 kbps, MP3] Omen
1 | 0

0 | 362

1

2013-10-24 04:49
Omen Последнее
./templates/default/images/folder_dl.gif Обучающее видео Николай Ягодкин | Полный пакет эффективных технологий (2013) [DVDRip] Omen
1 | 0

0 | 3943

88

2014-03-18 18:51
Omen Последнее
./templates/default/images/folder_dl.gif Фантастика, фэнтези, ужасы, мистика Брайдер Юрий, Чадович Николай - Тропа 2, Первые шаги по Тропе: Злой Котёл [Serregey, (ЛИ), 2014 г., 128 kbps, MP3] Omen
1 | 0

0 | 306

1

2014-06-28 11:53
Omen Последнее
./templates/default/images/folder_dl.gif Фантастика, фэнтези, ужасы, мистика Брайдер Юрий, Чадович Николай - Тропа 4, Клинки Максаров [Serregey, (ЛИ), 2013 г., 128 kbps, MP3] Omen
1 | 0

0 | 363

1

2014-06-28 12:17
Omen Последнее
./templates/default/images/folder_dl.gif Обучающее видео Ягодкин Николай и Сурков Андрей | Скорочтение 2.0 (2014) CamRip Omen
1 | 0

0 | 1636

85

2014-08-11 12:37
Omen Последнее
./templates/default/images/folder_dl.gif Мультимедийные приложения Ягодкин Николай (Advance club) | Все времена английского за 3 часа (2014) Omen
1 | 0

0 | 99

46

2014-09-10 22:03
Omen Последнее
./templates/default/images/folder_dl.gif Компьютерная литература Николай Полещук | Самоучитель AutoCAD 2014 + CD (2014) [PDF] Omen
1 | 0

0 | 1542

29

2014-11-14 15:45
Omen Последнее
Показать сообщения:    
Ответить на тему

Текущее время: Сегодня 00:57

Часовой пояс: GMT + 3



Вы не можете начинать темы
Вы не можете отвечать на сообщения
Вы не можете редактировать свои сообщения
Вы не можете удалять свои сообщения
Вы не можете голосовать в опросах
Вы не можете прикреплять файлы к сообщениям
Вы не можете скачивать файлы