Сегодня идет свободное скачивание без начисления Download

Николай и Александра / Nicholas and Alexandra (1971) BDRip

Ответить на тему
 
Автор
Сообщение

UndegraundMen ®

Стаж: 4 года 2 месяца

Сообщений: 26522

Торрент-статистика

Пост 13-Фев-2013 07:20

[Цитировать]

-Николай и Александра / Nicholas and Alexandra (1971) BDRip Русское название: Николай и Александра
Оригинальное название: Nicholas and Alexandra
Год выпуска: 1971
Жанр: Драма, Военный
Описание фильма: По книге Роберта Мэсси. Костюмная драма о трагической судьбе семьи последнего русского императора Николая II и о событиях, происходивших в начале XX века, повлиявших в дальнейшем на историю не только России, но и всего мира. Александра наконец-то рожает наследника Алексея, но это радостное событие омрачается мрачным диагнозом врачей. У малыша - гемофилия.
Режиссер: Франклин Дж. Шаффнер
Актеры: Майкл Джэйстон, Джанет Сузман, Родрик Ноубл, Аня Марсон, Линн Фредерик, Кендес Гленденнинг, Фиона Фуллертон, Гарри Эндрюс, Айрин Уорт, Том Бэйкер ...
Продолжительность: 03:08:26
Перевод: Многоголосый закадровый

Дата мировой премьеры: 29 ноября 1971
Видеокодек: Xvid
Битрейт видео: ~1522 kbps
Размер кадра: 720x304
Качество видео: BDRip
Аудиокодек: MP3
Битрейт аудио: 128.00 kbps
&

MediaInfo

Общее
Полное имя : D:\Nicholas and Alexandra.1971.BDRip.avi
Формат : AVI
Формат/Информация : Audio Video Interleave
Профиль формата : OpenDML
Настройки формата : rec
Размер файла : 2,18 Гбайт
Продолжительность : 3 ч. 8 м.
Общий поток : 1654 Кбит/сек
Название фильма : Николай и Александра / Nicholas and Alexandra (1971) BDRip rip by Rulya74
Программа кодирования : AVI-Mux GUI 1.17.8.3, Feb 16 201019:42:50
Видео
Идентификатор : 0
Формат : MPEG-4 Visual
Профиль формата : Advanced [email protected]
Параметр BVOP формата : 1
Параметр QPel формата : Нет
Параметр GMC формата : Без точки перехода
Параметр матрицы формата : Выборочная
Режим смешивания : Сжатый битовый поток
Идентификатор кодека : XVID
Идентификатор кодека/Подсказка : XviD
Продолжительность : 3 ч. 8 м.
Битрейт : 1522 Кбит/сек
Ширина : 720 пикселей
Высота : 304 пикселя
Соотношение сторон : 2,35:1
Частота кадров : 23,976 кадра/сек
Цветовое пространство : YUV
Субдискретизация насыщенности : 4:2:0
Битовая глубина : 8 бит
Тип развёртки : Прогрессивная
Метод сжатия : С потерями
Бит/(Пиксели*Кадры) : 0.290
Размер потока : 2,00 Гбайт (92%)
Библиотека кодирования : XviD 65
Аудио
Идентификатор : 1
Формат : MPEG Audio
Версия формата : Version 1
Профиль формата : Layer 3
Идентификатор кодека : 55
Идентификатор кодека/Подсказка : MP3
Продолжительность : 3 ч. 8 м.
Вид битрейта : Постоянный
Битрейт : 128 Кбит/сек
Каналы : 2 канала
Частота : 44,1 КГц
Метод сжатия : С потерями
Размер потока : 173 Мбайт (8%)
Выравнивание : Соединение по промежуткам
Продолжительность промежутка : 551 мс. (13,20 видеокадров)
Время предзагрузки промежутка : 209 мс.
Заголовок : Профессиональный (многоголосый закадровый)
Скриншоты:
           
Время раздачи: с 8:00 до 23:00
Вне форума [Профиль] [ЛС]
Похожие темы
Форум Тема Автор Торрент Отв. Посл. сообщение
./templates/default/images/folder_dl.gif Обучающее видео Алексей Толкачев и Николай Мрочковский - Персональный мотиватор [2011] PCRec Omen
0 | 1

0 | 547

25

2012-07-20 19:37
Omen Последнее
./templates/default/images/folder_dl.gif Техническая и научно-популярная литература Екатерина Иванова, Николай Николаев | Большая иллюстрированная энциклопедия живописи (2011) [PDF] Omen
1 | 0

0 | 873

29

2015-01-25 23:21
Omen Последнее
./templates/default/images/folder_dl.gif Книги для IPhone, IPod, Apple Стариков Николай, Беляев Дмитрий - Россия. Крым. История. [Стариков Николай, Беляев Дмитрий, 2015, История, публицистика, 64 kbps], M4B VHS
1 | 0

0 | 752

6

2015-05-13 22:53
VHS Последнее
./templates/default/images/folder_dl.gif Сатира, Юмор Николай Каланов | Сборник морских анекдотов (2015) [FB2, EPUB] Omen
1 | 0

1 | 582

3

2015-05-28 23:33
uschakov.yura Последнее
./templates/default/images/folder_dl.gif Наше кино Ледокол (Николай Хомерики) [2016, Россия, Драма, фильм-катастрофа, приключения, BDRip 720p] Original Rus Omen
1 | 0

0 | 176

2

2016-12-17 01:00
Omen Последнее
./templates/default/images/folder_dl.gif Обучающее видео Николай Ягодкин | Технологии набора словарного запаса (2013) HDRip [H.264/720p] Omen
2 | 0

1 | 635

14

2017-01-15 14:11
Dracula Последнее
./templates/default/images/folder_dl.gif Обучающее видео Николай Ягодкин | Техника запоминания 100 иностранных слов в час (2013) DVDRip [H.264] Omen
1 | 0

0 | 1670

12

2017-01-14 01:00
Omen Последнее
./templates/default/images/folder_dl.gif Детская литература Николай Носов | На горке (1963) [PDF, DJVU] XP1971
1 | 0

0 | 1503

1

2017-01-19 10:59
XP1971 Последнее
Показать сообщения:    
Ответить на тему

Текущее время: Сегодня 02:24

Часовой пояс: GMT + 3



Вы не можете начинать темы
Вы не можете отвечать на сообщения
Вы не можете редактировать свои сообщения
Вы не можете удалять свои сообщения
Вы не можете голосовать в опросах
Вы не можете прикреплять файлы к сообщениям
Вы не можете скачивать файлы