Сегодня идет свободное скачивание без начисления Download

Николай и Александра / Nicholas and Alexandra (1971) BDRip

Ответить на тему
 
Автор
Сообщение

UndegraundMen ®

Стаж: 4 года 11 месяцев

Сообщений: 26429

Торрент-статистика

Пост 13-Фев-2013 07:20

[Цитировать]

-Николай и Александра / Nicholas and Alexandra (1971) BDRip Русское название: Николай и Александра
Оригинальное название: Nicholas and Alexandra
Год выпуска: 1971
Жанр: Драма, Военный
Описание фильма: По книге Роберта Мэсси. Костюмная драма о трагической судьбе семьи последнего русского императора Николая II и о событиях, происходивших в начале XX века, повлиявших в дальнейшем на историю не только России, но и всего мира. Александра наконец-то рожает наследника Алексея, но это радостное событие омрачается мрачным диагнозом врачей. У малыша - гемофилия.
Режиссер: Франклин Дж. Шаффнер
Актеры: Майкл Джэйстон, Джанет Сузман, Родрик Ноубл, Аня Марсон, Линн Фредерик, Кендес Гленденнинг, Фиона Фуллертон, Гарри Эндрюс, Айрин Уорт, Том Бэйкер ...
Продолжительность: 03:08:26
Перевод: Многоголосый закадровый

Дата мировой премьеры: 29 ноября 1971
Видеокодек: Xvid
Битрейт видео: ~1522 kbps
Размер кадра: 720x304
Качество видео: BDRip
Аудиокодек: MP3
Битрейт аудио: 128.00 kbps
&

MediaInfo

Общее
Полное имя : D:\Nicholas and Alexandra.1971.BDRip.avi
Формат : AVI
Формат/Информация : Audio Video Interleave
Профиль формата : OpenDML
Настройки формата : rec
Размер файла : 2,18 Гбайт
Продолжительность : 3 ч. 8 м.
Общий поток : 1654 Кбит/сек
Название фильма : Николай и Александра / Nicholas and Alexandra (1971) BDRip rip by Rulya74
Программа кодирования : AVI-Mux GUI 1.17.8.3, Feb 16 201019:42:50
Видео
Идентификатор : 0
Формат : MPEG-4 Visual
Профиль формата : Advanced [email protected]
Параметр BVOP формата : 1
Параметр QPel формата : Нет
Параметр GMC формата : Без точки перехода
Параметр матрицы формата : Выборочная
Режим смешивания : Сжатый битовый поток
Идентификатор кодека : XVID
Идентификатор кодека/Подсказка : XviD
Продолжительность : 3 ч. 8 м.
Битрейт : 1522 Кбит/сек
Ширина : 720 пикселей
Высота : 304 пикселя
Соотношение сторон : 2,35:1
Частота кадров : 23,976 кадра/сек
Цветовое пространство : YUV
Субдискретизация насыщенности : 4:2:0
Битовая глубина : 8 бит
Тип развёртки : Прогрессивная
Метод сжатия : С потерями
Бит/(Пиксели*Кадры) : 0.290
Размер потока : 2,00 Гбайт (92%)
Библиотека кодирования : XviD 65
Аудио
Идентификатор : 1
Формат : MPEG Audio
Версия формата : Version 1
Профиль формата : Layer 3
Идентификатор кодека : 55
Идентификатор кодека/Подсказка : MP3
Продолжительность : 3 ч. 8 м.
Вид битрейта : Постоянный
Битрейт : 128 Кбит/сек
Каналы : 2 канала
Частота : 44,1 КГц
Метод сжатия : С потерями
Размер потока : 173 Мбайт (8%)
Выравнивание : Соединение по промежуткам
Продолжительность промежутка : 551 мс. (13,20 видеокадров)
Время предзагрузки промежутка : 209 мс.
Заголовок : Профессиональный (многоголосый закадровый)
Скриншоты:
           
Время раздачи: с 8:00 до 23:00
Вне форума [Профиль] [ЛС]
Похожие темы
Форум Тема Автор Торрент Отв. Посл. сообщение
./templates/default/images/folder_dl.gif Техническая и научно-популярная литература М.Н.Николаенко | Секреты радиолюбителя-конструктора [2006] [DJVU] UndegraundMen
1 | 0

0 | 413

6

2013-07-04 04:58
UndegraundMen Последнее
./templates/default/images/folder_dl.gif Отечественные cериалы Манекенщица / Серии: 1-2 из 4 (Елена Николаева) [2014, Мелодрама, HDTV 1080i] Omen
0 | 1

0 | 363

0

2014-03-06 20:00
Omen Последнее
./templates/default/images/folder_dl.gif Сатира, Юмор Евгений Николаев (сост.) | Дневник последнего любовника России. Путешествие из Конотопа в Петербург (2015) [FB2, EPUB] Omen
1 | 0

0 | 566

1

2015-05-23 22:45
Omen Последнее
./templates/default/images/folder_dl.gif Сатира, Юмор Николай Каланов | Сборник морских анекдотов (2015) [FB2, EPUB] Omen
1 | 0

1 | 1012

8

2015-05-28 23:33
uschakov.yura Последнее
./templates/default/images/folder_dl.gif Разное Николай Норд | Практикум реального колдовства. Азбука ведьм (2015) [FB2] Omen
2 | 0

0 | 1228

12

2015-07-18 19:23
Omen Последнее
./templates/default/images/folder_dl.gif Архив Николай Атаров | Избранное в двух томах [2 книги] (1971) [PDF, DJVU] Omen
0 | 1

0 | 181

0

2015-08-31 22:22
Omen Последнее
./templates/default/images/folder_dl.gif Фантастика, фэнтези, ужасы, мистика Николай Батин | Косморазведчик. Ковчег (2015) [FB2, EPUB] Omen
1 | 0

0 | 591

3

2015-09-26 22:20
Omen Последнее
./templates/default/images/folder_dl.gif Новинки (HD|DVD|BD|WEB|TV|SAT|PDTV|-Rip) Экипаж (Николай Лебедев) [2016 г., драма, приключения, триллер, BDRip] | Лицензия Theseus
1 | 0

0 | 1018

48

2016-06-02 00:38
Theseus Последнее
./templates/default/images/folder_dl.gif Обучающее видео Николай Угольник | Проектирование внутренних электрических сетей в Autocad (комплект золотой) (2016) PCRec }{@R0N
1 | 0

0 | 154

8

2016-06-07 10:04
}{@R0N Последнее
./templates/default/images/folder_dl.gif Обучающее видео Николай Ягодкин | Технология постановки навыков (2013) PCRec [H.264] Omen
1 | 0

0 | 484

14

2016-12-05 01:00
Omen Последнее
Показать сообщения:    
Ответить на тему

Текущее время: Сегодня 20:14

Часовой пояс: GMT + 3



Вы не можете начинать темы
Вы не можете отвечать на сообщения
Вы не можете редактировать свои сообщения
Вы не можете удалять свои сообщения
Вы не можете голосовать в опросах
Вы не можете прикреплять файлы к сообщениям
Вы не можете скачивать файлы