Сегодня идет свободное скачивание без начисления Download

Николай и Александра / Nicholas and Alexandra (1971) BDRip

Ответить на тему
 
Автор
Сообщение

UndegraundMen ®

Стаж: 4 года 4 месяца

Сообщений: 26499

Торрент-статистика

Пост 13-Фев-2013 07:20

[Цитировать]

-Николай и Александра / Nicholas and Alexandra (1971) BDRip Русское название: Николай и Александра
Оригинальное название: Nicholas and Alexandra
Год выпуска: 1971
Жанр: Драма, Военный
Описание фильма: По книге Роберта Мэсси. Костюмная драма о трагической судьбе семьи последнего русского императора Николая II и о событиях, происходивших в начале XX века, повлиявших в дальнейшем на историю не только России, но и всего мира. Александра наконец-то рожает наследника Алексея, но это радостное событие омрачается мрачным диагнозом врачей. У малыша - гемофилия.
Режиссер: Франклин Дж. Шаффнер
Актеры: Майкл Джэйстон, Джанет Сузман, Родрик Ноубл, Аня Марсон, Линн Фредерик, Кендес Гленденнинг, Фиона Фуллертон, Гарри Эндрюс, Айрин Уорт, Том Бэйкер ...
Продолжительность: 03:08:26
Перевод: Многоголосый закадровый

Дата мировой премьеры: 29 ноября 1971
Видеокодек: Xvid
Битрейт видео: ~1522 kbps
Размер кадра: 720x304
Качество видео: BDRip
Аудиокодек: MP3
Битрейт аудио: 128.00 kbps
&

MediaInfo

Общее
Полное имя : D:\Nicholas and Alexandra.1971.BDRip.avi
Формат : AVI
Формат/Информация : Audio Video Interleave
Профиль формата : OpenDML
Настройки формата : rec
Размер файла : 2,18 Гбайт
Продолжительность : 3 ч. 8 м.
Общий поток : 1654 Кбит/сек
Название фильма : Николай и Александра / Nicholas and Alexandra (1971) BDRip rip by Rulya74
Программа кодирования : AVI-Mux GUI 1.17.8.3, Feb 16 201019:42:50
Видео
Идентификатор : 0
Формат : MPEG-4 Visual
Профиль формата : Advanced [email protected]
Параметр BVOP формата : 1
Параметр QPel формата : Нет
Параметр GMC формата : Без точки перехода
Параметр матрицы формата : Выборочная
Режим смешивания : Сжатый битовый поток
Идентификатор кодека : XVID
Идентификатор кодека/Подсказка : XviD
Продолжительность : 3 ч. 8 м.
Битрейт : 1522 Кбит/сек
Ширина : 720 пикселей
Высота : 304 пикселя
Соотношение сторон : 2,35:1
Частота кадров : 23,976 кадра/сек
Цветовое пространство : YUV
Субдискретизация насыщенности : 4:2:0
Битовая глубина : 8 бит
Тип развёртки : Прогрессивная
Метод сжатия : С потерями
Бит/(Пиксели*Кадры) : 0.290
Размер потока : 2,00 Гбайт (92%)
Библиотека кодирования : XviD 65
Аудио
Идентификатор : 1
Формат : MPEG Audio
Версия формата : Version 1
Профиль формата : Layer 3
Идентификатор кодека : 55
Идентификатор кодека/Подсказка : MP3
Продолжительность : 3 ч. 8 м.
Вид битрейта : Постоянный
Битрейт : 128 Кбит/сек
Каналы : 2 канала
Частота : 44,1 КГц
Метод сжатия : С потерями
Размер потока : 173 Мбайт (8%)
Выравнивание : Соединение по промежуткам
Продолжительность промежутка : 551 мс. (13,20 видеокадров)
Время предзагрузки промежутка : 209 мс.
Заголовок : Профессиональный (многоголосый закадровый)
Скриншоты:
           
Время раздачи: с 8:00 до 23:00
Вне форума [Профиль] [ЛС]
Похожие темы
Форум Тема Автор Торрент Отв. Посл. сообщение
./templates/default/images/folder_dl.gif Фантастика, фэнтези, ужасы, мистика Николай Метельский | Теряя маски (2014) [FB2] sashau
1 | 0

0 | 649

0

2014-03-22 07:03
sashau Последнее
./templates/default/images/folder_dl.gif ЖЗЛ. Биографии. Мемуары. Историография. Николай Леонов | Лихолетье: последние операции советской разведки (2015) [FB2] Omen
1 | 0

0 | 926

6

2015-10-23 19:51
Omen Последнее
./templates/default/images/folder_dl.gif Кулинария В. Николаев, Д. Катков (сост.) | Вкуснейшие салаты (1997) [PDF, DJVU] moralis
0 | 1

0 | 597

3

2016-02-22 22:20
moralis Последнее
./templates/default/images/folder_dl.gif Фильмы 2011-2016 Монах и бес (Николай Досталь) [2016 г., комедия, фантастика, WEB-DLRip] Original (RUS)[iTunes] Omen
1 | 0

0 | 244

10

2016-03-09 15:35
Omen Последнее
./templates/default/images/folder_dl.gif Фантастика, фэнтези, ужасы, мистика Где то там - Муравьёв Константин Николаевич - Где то там [2014-2016, FB2, RUS] Omen
1 | 0

0 | 309

2

2016-05-11 21:00
Omen Последнее
./templates/default/images/folder_dl.gif Новинки (HD|DVD|BD|WEB|TV|SAT|PDTV|-Rip) Экипаж (Николай Лебедев) [2016 г., драма, приключения, триллер, BDRip 720p] | Лицензия Theseus
1 | 0

0 | 787

51

2016-06-02 00:46
Theseus Последнее
./templates/default/images/folder_dl.gif Разное Купина Н.А., Николина Н.А. - Филологический анализ художественного текста: Практикум [2011, PDF/DjVu, RUS] Omen
1 | 0

0 | 206

1

2016-09-08 01:00
Omen Последнее
./templates/default/images/folder_dl.gif T Новинки (CamRip|TS) Монах и бес (Николай Досталь) [2016, Комедия, Фантастика, CamRip] Russian Mafia
1 | 0

0 | 960

16

2016-09-18 18:17
Russian Mafia Последнее
./templates/default/images/folder_dl.gif Фантастика, фэнтези, ужасы, мистика Николай Бахрошин - Сборник произведений (13 книг) [2006-2016, Боевая фантастика, Космическая фантастика, Славянское фэнтези, FB2] Omen
1 | 0

0 | 241

2

2016-11-24 01:00
Omen Последнее
./templates/default/images/folder_dl.gif Обучающее видео Николай Ягодкин | Технологии обучения и работы с информацией (2013) CamRip Omen
1 | 0

0 | 3451

8

2016-12-04 01:01
Omen Последнее
Показать сообщения:    
Ответить на тему

Текущее время: Сегодня 18:42

Часовой пояс: GMT + 3



Вы не можете начинать темы
Вы не можете отвечать на сообщения
Вы не можете редактировать свои сообщения
Вы не можете удалять свои сообщения
Вы не можете голосовать в опросах
Вы не можете прикреплять файлы к сообщениям
Вы не можете скачивать файлы