Сегодня идет свободное скачивание без начисления Download

Большая ночь Казановы / Casanova\'s Big Night (1954) DVDRip

Ответить на тему
 
Автор
Сообщение

UndegraundMen ®

Стаж: 4 года 6 месяцев

Сообщений: 26499

Торрент-статистика

Пост 13-Фев-2013 07:20

[Цитировать]

-Большая ночь Казановы / Casanova's Big Night (1954) DVDRip- Русское название: Большая ночь Казановы
Оригинальное название: Casanova's Big Night
Год выпуска: 1954
Жанр: Мьюзикл, Комедия
Описание фильма:
Это случилось в итальянском городе Парма а 1757 году. Время настоящих страстей, убийства ради мести, признание в любви ради адюльтера, флирт ради легкой победы. И вот в самом центре таких событий оказался один человек, который прославил свое имя на все века — лучший фехтовальщик в Европе и самый знаменитый любовник во всей истории человечества Казанова!
Но эта история не столько о нем, а скорее о его громком имени, которое сделало простого портняжку укравшего костюм великого любовника и выдавшего себя за него, на несколько дней героем сюжета…
Режиссер: Норман З. МакЛеод / Norman Z. McLeod
Актеры: Боб Хоуп, Джоан Фонтейн, Одри Далтон, Бейзил Рэтбоун, Хью Марлоу, Арнольд Мосс, Джон Кэррадайн, Джон Хойт, Хоуп Эмерсон, Роберт Хаттон, Винсент Прайс
Продолжительность: 01:25:45
Перевод: Многоголосый закадровый

Видеокодек: DivX 4/5/6
Битрейт видео: ~2079 kb/s
Размер кадра: 640 х 480
Качество видео: DVDRip
Аудиокодек: AC3
Битрейт аудио: 192 kb/s cbr 2 канала

MediaIfo

Общее
Полное имя : Большая ночь Казановы 1954.avi
Формат : AVI
Формат/Информация : Audio Video Interleave
Размер файла : 1,37 Гбайт
Продолжительность : 1 ч. 25 м.
Общий поток : 2281 Кбит/сек
Программа кодирования : VirtualDubMod 1.5.10.3 (build 2550/release)
Библиотека кодирования : VirtualDubMod build 2550/release
Видео
Идентификатор : 0
Формат : MPEG-4 Visual
Профиль формата : Advanced Simple@L5
Параметр BVOP формата : 2
Параметр QPel формата : Нет
Параметр GMC формата : Без точки перехода
Параметр матрицы формата : Default (MPEG)
Идентификатор кодека : DX50
Идентификатор кодека/Подсказка : DivX 5
Продолжительность : 1 ч. 25 м.
Битрейт : 2079 Кбит/сек
Ширина : 640 пикселей
Высота : 480 пикселей
Соотношение сторон : 4:3
Частота кадров : 23,976 кадра/сек
Цветовое пространство : YUV
Субдискретизация насыщенности : 4:2:0
Битовая глубина : 8 бит
Тип развёртки : Прогрессивная
Метод сжатия : С потерями
Бит/(Пиксели*Кадры) : 0.282
Размер потока : 1,25 Гбайт (91%)
Библиотека кодирования : XviD 1.2.1 (UTC 2008-12-04)
Аудио
Идентификатор : 1
Формат : AC-3
Формат/Информация : Audio Coding 3
Расширение режима : CM (complete main)
Параметр Endianness формата : Big
Идентификатор кодека : 2000
Продолжительность : 1 ч. 25 м.
Вид битрейта : Постоянный
Битрейт : 192 Кбит/сек
Каналы : 2 канала
Расположение каналов : Front: L R
Частота : 48,0 КГц
Битовая глубина : 16 бит
Метод сжатия : С потерями
Размер потока : 118 Мбайт (8%)
Выравнивание : Разделение по промежуткам
Продолжительность промежутка : 42 мс. (1,00 видеокадр)
Время предзагрузки промежутка : 500 мс.
Скриншоты:

Время раздачи: С 9:00 до 22:00
Вне форума [Профиль] [ЛС]
Похожие темы
Форум Тема Автор Торрент Отв. Посл. сообщение
./templates/default/images/folder_dl.gif Обучающее видео Управление небольшими проектами Бонни Байэфора / Managing Small Projects with Bonnie Biafore [2013, менеджмент, HDRip, ENG] (Видеоурок) Omen
4 | 0

0 | 640

4

2015-07-30 00:00
Omen Последнее
./templates/default/images/folder_dl.gif Обучающее видео Как зарабатывать больше $2000 в месяц на youtube не снимая видео / How I Make $2000 A Month on YouTube With No Filming [2015, заработок в интернете, HDRip, RUS] (Видеоурок) Omen
1 | 0

0 | 379

5

2016-01-13 15:00
Omen Последнее
./templates/default/images/folder_dl.gif Домоводство, Сад, Огород, Хобби Галина Кизима | Большая энциклопедия садовода-огородника от А до Я (2017) [FB2] }{@R0N
1 | 0

0 | 742

8

2017-02-16 19:40
}{@R0N Последнее
./templates/default/images/folder_dl.gif Медицина и Здоровье Лариса Кузьмина | Большой лечебник древних знахарей. Миллион народных способов лечения (2016) [FB2] }{@R0N
5 | 0

0 | 5643

8

2017-02-28 22:26
}{@R0N Последнее
./templates/default/images/folder_dl.gif Фантастика, фэнтези, ужасы, мистика Валерий Большаков | Супердиверсант Сталина. И один в поле воин (2017) [FB2] }{@R0N
1 | 0

0 | 7687

6

2017-05-14 22:44
}{@R0N Последнее
./templates/default/images/folder_dl.gif Книги и журналы для самых маленьких и их родителей Валентина Дмитриева | Большая книга логических игр и головоломок для малышей (2016) [DOC] XP1971
1 | 0

0 | 7569

1

2017-08-05 01:08
XP1971 Последнее
./templates/default/images/folder_dl.gif Для детей, родителей и учителей Людмила Стишковская | Большая книга леса (2005) [DJVU] XP1971
1 | 0

0 | 16480

3

2017-08-13 22:38
XP1971 Последнее
Показать сообщения:    
Ответить на тему

Текущее время: Сегодня 14:30

Часовой пояс: GMT + 3



Вы не можете начинать темы
Вы не можете отвечать на сообщения
Вы не можете редактировать свои сообщения
Вы не можете удалять свои сообщения
Вы не можете голосовать в опросах
Вы не можете прикреплять файлы к сообщениям
Вы не можете скачивать файлы