Сегодня идет свободное скачивание без начисления Download

Вчера, сегодня, завтра / Ieri, oggi, domani (1963) [H.264] DVDRip

Ответить на тему
 
Автор
Сообщение

UndegraundMen ®

Стаж: 3 года 9 месяцев

Сообщений: 28329

Торрент-статистика

Пост 13-Фев-2013 12:32

[Цитировать]

-Вчера, сегодня, завтра / Ieri, oggi, domani (1963) [H.264] DVDRip-«Together! The Most Rib-Tickling Team Since Adam and Eve!»- Русское название: Вчера, сегодня, завтра
Оригинальное название: Ieri, oggi, domani
Год выпуска: 1963
Жанр: Мелодрама, Комедия
Страна: Италия, Франция
Производство: Compagnia Cinematografica Champion, Les Films Concordia
Описание фильма:
Софи Лорен и Марчелло Мастроянни исполнили здесь по три роли в трех комедийных новеллах о том, как итальянские женщины добиваются желаемого с помощью своей сексуальной привлекательности.
Очень эротично выглядит Лорен, сыгравшая: жену безработного, вынужденную торговать контрабандными сигаретами, и рожать детей одного за другим, чтобы судебные приставы не описали имущество; эгоистичную светскую даму, выкидывающую своего любовника из автомобиля из-за ерунды; девицу легкого поведения, дающую обет целомудрия на целую неделю в тот момент, когда приехавший к ней любовник уже готов удушить ее в порыве страсти.
Во всех этих историях несчастный герой Марчелло Мастроянни пасует перед животной энергией своей пассии.
Режиссер: Витторио Де Сика
Сценарий: Эдуардо Де Филиппо, Изабелла Кварантотти, Чезаре Дзаваттини
Продюсер: Карло Понти
Актеры: Софи Лорен, Марчелло Мастроянни, Альдо Джуффре, Агостино Сальвьетти, Лино Маттера, Текла Скарано, Сильвия Монелли, Карло Крокколо, Паскуале Ченнамо, Тонино Чанчи
Продолжительность: 01:54:07
Перевод: Многоголосый закадровый
Субтитры: Отсутствуют

Дата мировой премьеры: 19 декабря 1963
Видеокодек: MPEG-4 AVC/H.264
Битрейт видео: ~2199 Кбит/сек
Размер кадра: 704x288
Качество видео: DVDRip
Аудиокодек: AC3 2.0
Битрейт аудио: 192 kbps

Реценция с кинопоиска от Milton:

Италия — прекрасная страна…
В 60-е годы в Италии постоянно выходили бытовые комедии. Отличительная черта — фильмы состояли из новелл. В них выставляли на первый план бытовые проблемы: семья, карьера, взаимоотношения. Безусловно, эмоциональность итальянского народа делала фильмы живыми и интересными для зрителя.
Великое трио — Де Сика, Лорен и Мастроянни — создали ряд незабываемых картин, которые создали определённый облик итальянцев, с их плюсами и минусами.
Сюжет прост. Тема одна. Три новеллы. Результат один. Фильм — яркий, местами смешной, занимательный. Такое ощущение, будто вы пребываете в Италии в 60-е… Все новеллы любопытны. Первая и последняя — самые продолжительные. Вторая — 10-минутный перерыв перед самой зажигательной историей.
Мастроянни и Лорен — великий дуэт. Играют великолепно. Их игра насыщена эмоциями.
Фильм — эталон итальянской комедии 60-х. Заслуженный «Оскар». Эротизм, по нынешним меркам, выглядит довольно скромным, но поклонники Софи Лорен будут довольны. Прекрасное взаимопонимание создателей и исполнителей сотворило одну из лучших комедий прошедшего века.

10 из 10

Награды:

Оскар, 1965 год
Победитель (1):
Лучший фильм на иностранном языке — «Италия»
Британская академия, 1965 год
Победитель (1):
Лучший иностранный актер (Марчелло Мастроянни)

MediaInfo:

Общее
Уникальный идентификатор : 186204850603566483401920823936340602190 (0x8C15BFF00F0B20F29FE3AE72F3C62D4E)
Полное имя : D:\Downloads\Вчера, сегодня, завтра.mkv
Формат : Matroska
Версия формата : Version 2
Размер файла : 1,91 Гбайт
Продолжительность : 1 ч. 54 м.
Общий поток : 2392 Кбит/сек
Дата кодирования : UTC 2013-02-11 11:55:14
Программа кодирования : mkvmerge v5.7.0 ('The Whirlwind') built on Jul 29 2012 15:12:35
Библиотека кодирования : libebml v1.2.3 + libmatroska v1.3.0
Видео
Идентификатор : 1
Формат : AVC
Формат/Информация : Advanced Video Codec
Профиль формата : [url=mailto:[email protected]][email protected][/url]
Параметр CABAC формата : Да
Параметр ReFrames формата : 8 кадров
Режим смешивания : Header stripping
Идентификатор кодека : V_MPEG4/ISO/AVC
Продолжительность : 1 ч. 54 м.
Битрейт : 2199 Кбит/сек
Ширина : 704 пикселя
Высота : 288 пикселей
Соотношение сторон : 2,40:1
Режим частоты кадров : Постоянный
Частота кадров : 25,000 кадров/сек
Цветовое пространство : YUV
Субдискретизация насыщенности : 4:2:0
Битовая глубина : 8 бит
Тип развёртки : Прогрессивная
Бит/(Пиксели*Кадры) : 0.434
Размер потока : 1,72 Гбайт (90%)
Заголовок : Ieri, oggi, domani
Библиотека кодирования : x264 core 129 r2245 bc13772
Настройки программы : cabac=1 / ref=8 / deblock=1:0:0 / analyse=0x3:0x133 / me=umh / subme=9 / psy=1 / psy_rd=1.00:0.00 / mixed_ref=1 / me_range=16 / chroma_me=1 / trellis=2 / 8x8dct=1 / cqm=0 / deadzone=21,11 / fast_pskip=1 / chroma_qp_offset=-2 / threads=3 / lookahead_threads=1 / sliced_threads=0 / nr=0 / decimate=1 / interlaced=0 / bluray_compat=0 / constrained_intra=0 / bframes=3 / b_pyramid=2 / b_adapt=2 / b_bias=0 / direct=3 / weightb=1 / open_gop=0 / weightp=2 / keyint=250 / keyint_min=25 / scenecut=40 / intra_refresh=0 / rc_lookahead=60 / rc=2pass / mbtree=1 / bitrate=2199 / ratetol=1.0 / qcomp=0.60 / qpmin=10 / qpmax=51 / qpstep=4 / cplxblur=20.0 / qblur=0.5 / ip_ratio=1.40 / aq=1:1.00
Язык : Italian
Default : Да
Forced : Нет
Аудио
Идентификатор : 2
Формат : AC-3
Формат/Информация : Audio Coding 3
Расширение режима : CM (complete main)
Параметр Endianness формата : Big
Режим смешивания : Header stripping
Идентификатор кодека : A_AC3
Продолжительность : 1 ч. 54 м.
Вид битрейта : Постоянный
Битрейт : 192 Кбит/сек
Каналы : 2 канала
Расположение каналов : Front: L R
Частота : 48,0 КГц
Битовая глубина : 16 бит
Метод сжатия : С потерями
Размер потока : 157 Мбайт (8%)
Заголовок : Двуголосый закадровый
Язык : Russian
Default : Да
Forced : Нет
Скриншоты:                    Время раздачи: с 12:00 до 24:00 по Москве (выходные круглосуточно), до 10 скачавших
Вне форума [Профиль] [ЛС]
Похожие темы
Форум Тема Автор Торрент Отв. Посл. сообщение
./templates/default/images/folder_dl.gif Фантастика, фэнтези, ужасы, мистика Виталий Храмов | Сегодня - позавчера [3 книги] (2014-2016) [FB2] moralis
1 | 0

1 | 341

9

2016-04-10 23:01
Aikivas Последнее
Показать сообщения:    
Ответить на тему

Текущее время: Сегодня 20:24

Часовой пояс: GMT + 3



Вы не можете начинать темы
Вы не можете отвечать на сообщения
Вы не можете редактировать свои сообщения
Вы не можете удалять свои сообщения
Вы не можете голосовать в опросах
Вы не можете прикреплять файлы к сообщениям
Вы не можете скачивать файлы