Сегодня идет свободное скачивание без начисления Download

Анна Каренина / Anna Karenina (1948) DVDRip

Ответить на тему
 
Автор
Сообщение

UndegraundMen ®

Стаж: 3 года 9 месяцев

Сообщений: 28329

Торрент-статистика

Пост 14-Фев-2013 03:00

[Цитировать]

-Анна Каренина / Anna Karenina (1948) DVDRip
«This Was Her One Tragic Love !»
- Русское название: Анна Каренина
Оригинальное название: Anna Karenina
Год выпуска: 1948
Производство: Великобритания, London Film Productions
Жанр: Драма, мелодрама
Перевод: Профессиональный двухголосый
Субтитры: Отсутствуют
Режиссер: Жюльен Дювивье
Сценарий: Жан Ануй, Жюльен Дювивье, Гай Морган
Актеры: Вивьен Ли, Ральф Ричардсон, Кирон Мур, Хью Демпстер, Мэри Керридж, Мари Лор, Фрэнк Тикл, Сэлли Энн Хоус, Найолл МакГиннис, Майкл Гоу, Мартита Хант, Хезер Тэтчер, Хелен Хэйи, Мари Мартлю, Руби Миллер, Остин Тревор
Описание фильма:
Незабываемая работа Вивьен Ли в картине мэтра французского кинематографа Жюльена Дювивье о трагедии "незаконной" любви Анны Карениной, молодой красивой женщины, полной жизни, жажды любви.
Как передать драму женщины, у которой есть всё — муж, положение в свете, деньги, дети, друзья — а она всё равно несчастлива? На вокзале Анна знакомится с графом Вронским и понимает, чего именно ей не хватало в этой жизни — бурных страстей, красавца-любовника и страха перед разоблачением.
Долгое время связь удавалось скрывать, но однажды, на бегах, тайное становится явным… Муж угрожает публичным скандалом, лишением материнских прав и денежными санкциями, Вронский же не может предложить ничего, кроме любви…

Продолжительность: 02:13:41
Качество видео: DVDRip
Видеокодек: XviD
Битрейт видео: ~ 1807 Кбит/сек
Размер кадра: 704x528
Аудио 1: Русский, AC3, 2 ch, 192 Кбит/сек
Аудио 2: Английский, AC3, 2 ch, 192 Кбит/сек

MediaInfo

Код:
Общее
Полное имя                               : E:\Раздачи\Видео\Анна Каренина (1948) DVDRip.avi
Формат                                   : AVI
Формат/Информация                        : Audio Video Interleave
Размер файла                             : 2,06 Гбайт
Продолжительность                        : 2 ч. 13 м.
Общий поток                              : 2208 Кбит/сек
Режиссёр                                 : Rip by Enigma-Vladislav71
Правообладатель                          : exkinoray
Примечание                               : 16.03.2012
Видео
Идентификатор                            : 0
Формат                                   : MPEG-4 Visual
Профиль формата                          : [email protected]
Параметр BVOP формата                    : Нет
Параметр QPel формата                    : Нет
Параметр GMC формата                     : Без точки перехода
Параметр матрицы формата                 : Default (H.263)
Идентификатор кодека                     : XVID
Идентификатор кодека/Подсказка           : XviD
Продолжительность                        : 2 ч. 13 м.
Продолжительность оригинала              : 2 ч. 13 м.
Битрейт                                  : 1807 Кбит/сек
Ширина                                   : 704 пикселя
Высота                                   : 528 пикселей
Соотношение сторон                       : 4:3
Частота кадров                           : 25,000 кадров/сек
Цветовое пространство                    : YUV
Субдискретизация насыщенности            : 4:2:0
Битовая глубина                          : 8 бит
Тип развёртки                            : Прогрессивная
Метод сжатия                             : С потерями
Бит/(Пиксели*Кадры)                      : 0.194
Размер потока                            : 1,69 Гбайт (82%)
Библиотека кодирования                   : XviD 1.1.2 (UTC 2006-11-01)
Аудио #1
Идентификатор                            : 1
Формат                                   : AC-3
Формат/Информация                        : Audio Coding 3
Расширение режима                        : CM (complete main)
Параметр Endianness формата              : Big
Идентификатор кодека                     : 2000
Продолжительность                        : 2 ч. 13 м.
Вид битрейта                             : Постоянный
Битрейт                                  : 192 Кбит/сек
Каналы                                   : 2 канала
Расположение каналов                     : Front: L R
Частота                                  : 48,0 КГц
Битовая глубина                          : 16 бит
Метод сжатия                             : С потерями
Размер потока                            : 184 Мбайт (9%)
Выравнивание                             : Соединение по промежуткам
Продолжительность промежутка             : 32  мс. (0,80 видеокадр)
Аудио #2
Идентификатор                            : 2
Формат                                   : AC-3
Формат/Информация                        : Audio Coding 3
Расширение режима                        : CM (complete main)
Параметр Endianness формата              : Big
Идентификатор кодека                     : 2000
Продолжительность                        : 2 ч. 13 м.
Вид битрейта                             : Постоянный
Битрейт                                  : 192 Кбит/сек
Каналы                                   : 2 канала
Расположение каналов                     : Front: L R
Частота                                  : 48,0 КГц
Битовая глубина                          : 16 бит
Метод сжатия                             : С потерями
Размер потока                            : 184 Мбайт (9%)
Выравнивание                             : Соединение по промежуткам
Продолжительность промежутка             : 32  мс. (0,80 видеокадр)
         
         -Время раздачи: 9.00 - 23.00 (по мере возможности...)
Вне форума [Профиль] [ЛС]
Показать сообщения:    
Ответить на тему

Текущее время: Сегодня 13:33

Часовой пояс: GMT + 3



Вы не можете начинать темы
Вы не можете отвечать на сообщения
Вы не можете редактировать свои сообщения
Вы не можете удалять свои сообщения
Вы не можете голосовать в опросах
Вы не можете прикреплять файлы к сообщениям
Вы не можете скачивать файлы