Сегодня идет свободное скачивание без начисления Download

Дочь Райана / Ryan\'s Daughter (1970) DVDRip

Ответить на тему
 
Автор
Сообщение

UndegraundMen ®

Стаж: 3 года 9 месяцев

Сообщений: 28329

Торрент-статистика

Пост 15-Фев-2013 12:20

[Цитировать]

-Дочь Райана / Ryan's Daughter (1970) DVDRip- Русское название: Дочь Райана
Оригинальное название: Ryan's Daughter
Год выпуска: 1970
Жанр: Драма, Мелодрама
Описание фильма:
Действие происходит во время Первой Мировой войны, в небольшой ирландской деревушке на побережье. Рози Райан, дочь местного трактирщика и жена бесстрастного школьного учителя, заводит роман с молодым британским офицером, прибывшим для расследования связи между ИРА и немецкими войсками…
Режиссер: Дэвид Лин / David Lean
Актеры: Роберт Митчум, Тревор Хоуард, Кристофер Джонс, Джон Миллс, Лео МакKерн, Сара Майлс, Бэрри Фостер
Продолжительность: 01:53:35
Перевод: Одноголосый закадровый

Видеокодек: Xvid
Битрейт видео: ~780 kb/s
Размер кадра: 688 x 304
Качество видео: DVDRip
Аудиокодек: MP3
Битрейт аудио: 128 kb/s CBR, 2 канала

MediaInfo

Общее
Полное имя : Дочь Райана 1970.avi
Формат : AVI
Формат/Информация : Audio Video Interleave
Размер файла : 1,46 Гбайт
Продолжительность : 1 ч. 53 м.
Общий поток : 1834 Кбит/сек
Программа кодирования : VirtualDubMod 1.5.10.2 (build 2540/release)
Библиотека кодирования : VirtualDub build 23567/release
Видео
Идентификатор : 0
Формат : MPEG-4 Visual
Профиль формата : Advanced [email protected]
Параметр BVOP формата : 2
Параметр QPel формата : Нет
Параметр GMC формата : Без точки перехода
Параметр матрицы формата : Выборочная
Идентификатор кодека : XVID
Идентификатор кодека/Подсказка : XviD
Продолжительность : 1 ч. 53 м.
Битрейт : 780 Кбит/сек
Ширина : 688 пикселей
Высота : 304 пикселя
Соотношение сторон : 2,25:1
Частота кадров : 23,976 кадра/сек
Цветовое пространство : YUV
Субдискретизация насыщенности : 4:2:0
Битовая глубина : 8 бит
Тип развёртки : Прогрессивная
Метод сжатия : С потерями
Бит/(Пиксели*Кадры) : 0.156
Размер потока : 634 Мбайт (43%)
Библиотека кодирования : XviD 1.2.1 (UTC 2008-12-04)
Аудио
Идентификатор : 1
Формат : MPEG Audio
Идентификатор кодека : 55
Идентификатор кодека/Подсказка : MP3
Продолжительность : 1 ч. 53 м.
Битрейт : 128 Кбит/сек
Каналы : 2 канала
Частота : 48,0 КГц
Метод сжатия : С потерями
Размер потока : 104 Мбайт (7%)
Выравнивание : Разделение по промежуткам
Продолжительность промежутка : 42 мс. (1,00 видеокадр)
Время предзагрузки промежутка : 504 мс.
Скриншоты:
Вне форума [Профиль] [ЛС]

michaeljee

Стаж: 3 года 9 месяцев

Сообщений: 1

Торрент-статистика

Пост 26-Фев-2013 08:56 (спустя 10 дней)

[Цитировать]

Приятная неожиданность об этой короткой форме. Можете ли вы рассказать нам, что это вы говорите / пишет?
С любой информацией. об этой краткой форме были размещены раньше (и я просто пропустил это)?

_________________
leather jackets http://www.leather4sure.com
plus size leather skirt http://www.leather4sure.com/leather-skirts-2.html
Вне форума [Профиль] [ЛС]
Показать сообщения:    
Ответить на тему

Текущее время: Сегодня 17:35

Часовой пояс: GMT + 3



Вы не можете начинать темы
Вы не можете отвечать на сообщения
Вы не можете редактировать свои сообщения
Вы не можете удалять свои сообщения
Вы не можете голосовать в опросах
Вы не можете прикреплять файлы к сообщениям
Вы не можете скачивать файлы