Сегодня идет свободное скачивание без начисления Download

Капля / The Blob (1958) DVDRip [H.264]

Ответить на тему
 
Автор
Сообщение

UndegraundMen ®

Стаж: 3 года 9 месяцев

Сообщений: 28329

Торрент-статистика

Пост 16-Фев-2013 19:20

[Цитировать]

-Капля / The Blob (1958) DVDRip [H.264]- Страна: США
Русское название: Капля
Оригинальное название: The Blob
Год выпуска: 1958
Жанр: Фантастика, Ужасы
Описание фильма:
Находясь на вершине холма, Стив и Джейн становятся свидетелями падения метеорита. Местный житель обнаруживает на месте падения странную субстанцию, похожую на желе и ведущую себя крайне агрессивно. Стив пытается предупредить людей в ближайшем городке о космической угрозе, но ему никто не верит.
Режиссер: Ирвин С. Йоворт мл. / Irvin S. Yeaworth Jr., Рассел С. Доутен мл. / Russell S. Doughten Jr.
Актеры: Стив МакКуин (Steve Andrews,), Анета Корсаут (Jane Martin), Эрл Роу (Lt. Dave), Олин Ховлин (Old Man), Олден 'Стивен' Чейз (Dr. T. Hallen), Джон Бенсон (Sgt. Jim Bert), Джордж Кэррас (Officer Ritchie), Ли Пейтон (Kate the Nurse), Эльберт Смит (Henry Martin), Хью Грэхэм (Mr. Andrews), Винсент Барби (George - Cafe Owner), Одри Меткалф (Elizabeth Martin)
Продолжительность: 01:22:43
Перевод: Двухголосный закадровый

Качество: DVDRip by lesnik125
Формат: MKV
Видео: x264, [email protected] (1.658), 2136 Kbps, 23.976 fps, 0.276 bpp
Аудио 1: AC3, 192 Kbps, CBR, 2 ch, Русский, Двухголосный закадровый
Аудио 2: AC3, 128 Kbps, CBR, 1 ch, Original, English
Субтитры: нет
Навигация по главам: да
Сэмпл: Ссылка

Mediainfo

General
Complete name : Капля. The Blob. 1958. (фантастика, ужасы). DVDRip-AVC.mkv
Format : Matroska
Format version : Version 2
File size : 1.45 GiB
Duration : 1h 22mn
Overall bit rate : 2 506 Kbps
Encoded date : UTC 2012-06-16 19:34:47
Writing application : mkvmerge v3.3.0 ('Language') gebaut am Mar 24 2010 14:59:24
Writing library : libebml v0.8.0 + libmatroska v0.9.0
Video
ID : 1
Format : AVC
Format/Info : Advanced Video Codec
Format profile : [url=mailto:[email protected]][email protected][/url]
Format settings, CABAC : Yes
Format settings, ReFrames : 12 frames
Codec ID : V_MPEG4/ISO/AVC
Duration : 1h 22mn
Bit rate : 2 184 Kbps
Width : 672 pixels
Height : 480 pixels
Display aspect ratio : 1.658
Original display aspect ratio : 1.659
Frame rate mode : Constant
Frame rate : 23.976 fps
Color space : YUV
Chroma subsampling : 4:2:0
Bit depth : 8 bits
Scan type : Progressive
Bits/(Pixel*Frame) : 0.282
Stream size : 1.23 GiB (85%)
Title : The Blob DVDRip by SC Kosmos
Writing library : x264 core 125 r2200 999b753
Encoding settings : cabac=1 / ref=12 / deblock=1:-2:-2 / analyse=0x3:0x113 / me=umh / subme=10 / psy=1 / psy_rd=1.00:0.15 / mixed_ref=1 / me_range=32 / chroma_me=1 / trellis=2 / 8x8dct=1 / cqm=0 / deadzone=21,11 / fast_pskip=1 / chroma_qp_offset=-3 / threads=12 / lookahead_threads=2 / sliced_threads=0 / nr=0 / decimate=1 / interlaced=0 / bluray_compat=0 / constrained_intra=0 / bframes=10 / b_pyramid=2 / b_adapt=1 / b_bias=0 / direct=1 / weightb=1 / open_gop=0 / weightp=2 / keyint=230 / keyint_min=23 / scenecut=40 / intra_refresh=0 / rc_lookahead=50 / rc=2pass / mbtree=1 / bitrate=2184 / ratetol=1.0 / qcomp=0.60 / qpmin=0 / qpmax=69 / qpstep=4 / cplxblur=20.0 / qblur=0.5 / ip_ratio=1.40 / aq=1:1.00
Language : English
Default : No
Forced : No
Color primaries : BT.601 PAL
Transfer characteristics : BT.470 System B, BT.470 System G
Matrix coefficients : BT.601
Audio #1
ID : 2
Format : AC-3
Format/Info : Audio Coding 3
Mode extension : CM (complete main)
Format settings, Endianness : Big
Codec ID : A_AC3
Duration : 1h 22mn
Bit rate mode : Constant
Bit rate : 192 Kbps
Channel(s) : 2 channels
Channel positions : Front: L R
Sampling rate : 48.0 KHz
Bit depth : 16 bits
Compression mode : Lossy
Stream size : 114 MiB (8%)
Title : MVO
Language : Russian
Default : Yes
Forced : No
Audio #2
ID : 3
Format : AC-3
Format/Info : Audio Coding 3
Mode extension : CM (complete main)
Format settings, Endianness : Big
Codec ID : A_AC3
Duration : 1h 22mn
Bit rate mode : Constant
Bit rate : 128 Kbps
Channel(s) : 1 channel
Channel positions : Front: C
Sampling rate : 48.0 KHz
Bit depth : 16 bits
Compression mode : Lossy
Stream size : 75.7 MiB (5%)
Title : English
Language : English
Default : No
Forced : No
Menu
00:00:00.000 : en:Chapter 01
00:01:58.734 : en:Chapter 02
00:07:58.734 : en:Chapter 03
00:11:47.734 : en:Chapter 04
00:17:06.734 : en:Chapter 05
00:18:50.734 : en:Chapter 06
00:20:24.734 : en:Chapter 07
00:23:20.734 : en:Chapter 08
00:27:54.734 : en:Chapter 09
00:31:13.734 : en:Chapter 10
00:37:49.734 : en:Chapter 11
00:38:31.734 : en:Chapter 12
00:44:12.734 : en:Chapter 13
00:51:24.101 : en:Chapter 14
00:56:02.101 : en:Chapter 15
01:01:22.101 : en:Chapter 16
01:06:09.101 : en:Chapter 17
01:09:00.101 : en:Chapter 18
01:11:54.101 : en:Chapter 19
01:16:49.101 : en:Chapter 20

Моё мнение о фильме

Любителям фантастики и истории кино рекомендую. В 1988 году был снят римейк.
Экранизация произведения Ирвина Х. Миллгэйта
Скриншоты:
       
       
Время раздачи: С 10:00 до 17:00 (мск)
Вне форума [Профиль] [ЛС]
Показать сообщения:    
Ответить на тему

Текущее время: Сегодня 08:55

Часовой пояс: GMT + 3



Вы не можете начинать темы
Вы не можете отвечать на сообщения
Вы не можете редактировать свои сообщения
Вы не можете удалять свои сообщения
Вы не можете голосовать в опросах
Вы не можете прикреплять файлы к сообщениям
Вы не можете скачивать файлы