Сегодня идет свободное скачивание без начисления Download

Брак по-итальянски / Matrimonio all\'italian (1964) [H.264] DVDRip

Ответить на тему
 
Автор
Сообщение

UndegraundMen ®

Стаж: 3 года 9 месяцев

Сообщений: 28329

Торрент-статистика

Пост 17-Фев-2013 01:28

[Цитировать]

-Брак по-итальянски / Matrimonio all'italian (1964) [H.264] DVDRip-«WHEN IN ROME...DO AS ROMANS DO...OR ELSE!»- Русское название: Брак по-итальянски
Оригинальное название: Matrimonio all'italian
Год выпуска: 1964
Жанр: Драма, Мелодрама, Комедия
Страна: Италия, Франция
Производство: Compagnia Cinematografica Champion, Les Films Concordia
Описание фильма:
Нелегкая судьба Филумены Мартурано, героини одноименной пьесы Эдуардо де Филиппо, была близка всем советским женщинам. Ну а жизненным проблемам и устремлениям Доменико сочувствовали все мужчины. Нужда приводит юную Филумену в публичный дом, где она и знакомится с любвеобильным красавцем Доменико.
Спустя годы они встречаются вновь и она становится хозяйкой в его доме, но несмотря на их многолетнюю связь, он постоянно отказывается официально оформить их отношения. И вот наступил критический момент — убежденный холостяк Доменико решает жениться… на одной из своих многочисленных пассий. У любящей его Филумены остается последнее средство…
Режиссер: Витторио Де Сика
Сценарий: Ренато Кастеллани, Тонино Гуэрра, Леонардо Бенвенути
Продюсер: Карло Понти, Джозеф Э. Ливайн
Актеры: Софи Лорен, Марчелло Мастроянни, Альдо Пульизи, Текла Скарано, Марилу Толо, Джанни Ридольфи, Дженеросо Кортини, Вито Мориконе, Рита Пиччоне, Лино Маттера
Продолжительность: 01:37:24
Перевод: Дублированный (киностудия «Союзмультфильм», 1965г)
Субтитры: Отсутствуют

Дата мировой премьеры: 18 декабря 1964
Видеокодек: MPEG-4 AVC/H.264
Битрейт видео: ~2500 Кбит/сек
Размер кадра: 720x384
Качество видео: DVDRip
Аудиокодек: AC3 2.0
Битрейт аудио: 192 kbps

Реценция с кинопоиска от Zarina_08:

Истинная женщина…
Каждая картина в которой снялась Софи Лорен — уже отмечена особенным шармом. Но «Брак по-итальянски» — на мой взгляд шедевр.
Представительница древнейшей профессии, внушающая такое уважение, которое возможно и не снилось многим достопочтенным домашним матронам. Софи Лорен необыкновенно хороша, блистательна и естественна в этой роли, и сумела влюбить в свою героиню наверное весь мир.
Настоящая женщина, чем бы она не занималась, всегда ищет свой очаг. А мудрая — ещё и будет его строить, несмотря на все препятствия и запреты. Три мальчика, которых женщина из публичного дома смогла достойно вырастить — не это ли награда в итоге жизненного пути? И любимый мужчина, причинивший столько боли, но все равно оставшийся любимым.. И мудрая женщина — всё же женщина, любящая и ранимая…
Фильм мудрый и наивный, грустный и смешной. Как и наша жизнь.
Софи Лорен и бесподобный Марчелло Мастрояни — это те, без которых даже этот сценарий не стал бы таким любимым. Это наслаждение для глаз и души.

Награды:

Оскар, 1966 год
Номинации (1):
Лучший фильм на иностранном языке — «Италия»
Оскар, 1965 год
Номинации (1):
Лучшая женская роль (Софи Лорен)
Золотой глобус, 1965 год
Победитель (1):
Лучший иностранный фильм — «Италия»
Номинации (2):
Лучшая женская роль (комедия или мюзикл) (Софи Лорен)
Лучшая мужская роль (комедия или мюзикл) (Марчелло Мастроянни)
ММКФ, 1965 год
Победитель (1):
Серебряная премия за лучшую женскую роль (Софи Лорен)
Номинации (1):
Главный приз[color]

MediaInfo:

Общее
Уникальный идентификатор : 212289063701453918127910885612453482995 (0x9FB562EF5C5D5D5586E1B7C4BAA9D1F3)
Полное имя : D:\Downloads\Брак по-итальянски.mkv
Формат : Matroska
Версия формата : Version 2
Размер файла : 1,83 Гбайт
Продолжительность : 1 ч. 37 м.
Общий поток : 2693 Кбит/сек
Дата кодирования : UTC 2013-02-16 04:24:07
Программа кодирования : mkvmerge v5.7.0 ('The Whirlwind') built on Jul 29 2012 15:12:35
Библиотека кодирования : libebml v1.2.3 + libmatroska v1.3.0
Видео
Идентификатор : 1
Формат : AVC
Формат/Информация : Advanced Video Codec
Профиль формата : [url=mailto:[email protected]][email protected][/url]
Параметр CABAC формата : Да
Параметр ReFrames формата : 5 кадров
Режим смешивания : Header stripping
Идентификатор кодека : V_MPEG4/ISO/AVC
Продолжительность : 1 ч. 37 м.
Битрейт : 2500 Кбит/сек
Ширина : 720 пикселей
Высота : 384 пикселя
Соотношение сторон : 1,85:1
Режим частоты кадров : Постоянный
Частота кадров : 25,000 кадров/сек
Цветовое пространство : YUV
Субдискретизация насыщенности : 4:2:0
Битовая глубина : 8 бит
Тип развёртки : Прогрессивная
Бит/(Пиксели*Кадры) : 0.362
Размер потока : 1,66 Гбайт (91%)
Заголовок : Matrimonio all'italiana
Библиотека кодирования : x264 core 129 r2230 1cffe9f
Настройки программы : cabac=1 / ref=5 / deblock=1:0:0 / analyse=0x3:0x113 / me=umh / subme=8 / psy=1 / psy_rd=1.00:0.00 / mixed_ref=1 / me_range=16 / chroma_me=1 / trellis=1 / 8x8dct=1 / cqm=0 / deadzone=21,11 / fast_pskip=1 / chroma_qp_offset=-2 / threads=3 / lookahead_threads=1 / sliced_threads=0 / nr=0 / decimate=1 / interlaced=0 / bluray_compat=0 / constrained_intra=0 / bframes=3 / b_pyramid=2 / b_adapt=2 / b_bias=0 / direct=3 / weightb=1 / open_gop=0 / weightp=2 / keyint=250 / keyint_min=25 / scenecut=40 / intra_refresh=0 / rc_lookahead=50 / rc=2pass / mbtree=1 / bitrate=2500 / ratetol=1.0 / qcomp=0.60 / qpmin=0 / qpmax=69 / qpstep=4 / cplxblur=20.0 / qblur=0.5 / ip_ratio=1.40 / aq=1:1.00
Язык : Italian
Default : Да
Forced : Нет
Аудио
Идентификатор : 2
Формат : AC-3
Формат/Информация : Audio Coding 3
Расширение режима : CM (complete main)
Параметр Endianness формата : Big
Режим смешивания : Header stripping
Идентификатор кодека : A_AC3
Продолжительность : 1 ч. 37 м.
Вид битрейта : Постоянный
Битрейт : 192 Кбит/сек
Каналы : 2 канала
Расположение каналов : Front: L R
Частота : 48,0 КГц
Битовая глубина : 16 бит
Метод сжатия : С потерями
Размер потока : 134 Мбайт (7%)
Заголовок : Дублированный
Язык : Russian
Default : Да
Forced : Нет
Скриншоты:                    Время раздачи: с 12:00 до 24:00 по Москве (выходные круглосуточно), до 10 скачавших
Вне форума [Профиль] [ЛС]
Показать сообщения:    
Ответить на тему

Текущее время: Сегодня 01:17

Часовой пояс: GMT + 3



Вы не можете начинать темы
Вы не можете отвечать на сообщения
Вы не можете редактировать свои сообщения
Вы не можете удалять свои сообщения
Вы не можете голосовать в опросах
Вы не можете прикреплять файлы к сообщениям
Вы не можете скачивать файлы