Сегодня идет свободное скачивание без начисления Download

Подсолнухи / Sunflower / I girasoli (1970) [H.264] DVDRip

Ответить на тему
 
Автор
Сообщение

UndegraundMen ®

Стаж: 3 года 9 месяцев

Сообщений: 28329

Торрент-статистика

Пост 17-Фев-2013 16:20

[Цитировать]

-Подсолнухи / Sunflower / I girasoli (1970) [H.264] DVDRip-«Filmed in Russia from the Kremlin to the Ukraine.»- Русское название: Подсолнухи
Оригинальное название: Sunflower / I girasoli
Год выпуска: 1970
Жанр: Драма
Страна: Италия, Франция, СССР
Производство: AVCO Embassy Pictures, Compagnia Cinematografica Champion, Les Films Concordia, Мосфильм
Описание фильма:
Этим фильмом Витторио де Сика завершает своеобразную трилогию с участием С. Лорен и М. Мастроянни, начатую картинами «Вчера, сегодня, завтра» и «Брак по итальянски». Вновь самая красивая пара итальянского кино разыгрывает разрывающую душу историю любви.
Антонио познакомился с Джованной во время II мировой войны, за неделю до его отправки на фронт в Африку. Роман двух темпераментных возлюбленных развивался столь стремительно, что уже после нескольких интимных встреч они решили пожениться, ведь молодожену полагается отсрочка от призыва. Увы, короткий отпуск, наполненный страстью, пролетел незаметно, а хитроумные попытки «откосить» от армии привели к тому, что молодому супругу пришлось отправиться не в Африку, а на русский фронт, в снега и морозы бескрайней России.
По окончании войны Антонио не вернулся в Италию — он "пропал без вести".
Но Джованна не могла примириться с мыслью о смерти любимого, она верила, что он был ранен,
потерял память и живет где-то в чужой стране.
На последние деньги она отправляется на поиски мужа в далекую Россию... Там ее ждало потрясающее открытие.
Режиссер: Витторио Де Сика
Сценарий: Тонино Гуэрра, Георгий Мдивани, Чезаре Дзаваттини
Продюсер: Артур Кон, Карло Понти, Джозеф Э. Ливайн
Композитор: Генри Манчини
Актеры: Софи Лорен, Марчелло Мастроянни, Людмила Савельева, Галина Андреева, Анна Карена, Джермано Лонго, Надя Середниченко, Глауко Онорато, Сильвано Транквилли, Мариза Траверси
Продолжительность: 01:47:16
Перевод: Многоголосый закадровый (Film Prestige)
Субтитры: Отсутствуют

Дата мировой премьеры: 14 марта 1970
Дата премьеры в СССР: 1 марта 1971
Видеокодек: MPEG-4 AVC/H.264
Битрейт видео: ~2399 Кбит/сек
Размер кадра: 704x384
Качество видео: DVDRip
Аудиокодек: AC3 2.0
Битрейт аудио: 192 kbps

Знаете ли вы, что...

Первоначально премьера фильма должна была состояться 8 марта 1970 года в Москве, однако из-за требований советской стороны внести изменения в уже смонтированную картину, премьера состоялась 13 марта 1970 года в Риме.
Съёмки фильма происходили в СССР. Сцена, где героиня Софи Лорен расспрашивает о своем женихе в русской деревне, снималась в Захарково
В кадре (московские съёмки) можно видеть Храм Архангела Михаила в Тропарёве. Позднее (1975) та же церковь появляется в известном фильме «Ирония судьбы, или С лёгким паром!».
Занимает по посещаемости 39-е место среди зарубежных фильмов в советском кинопрокате.

Реценция с кинопоиска от Anatoliy karpet:

Debitamente (По-настоящему)
Смотрел это кино год назад в Астане (был в командировке) в маленьком кинотеатре, где проходила неделя европейского кино. Меня заманил туда именно фильм «Подсолнухи», а именно великолепным трио: Софи, Мастроянни и Савельевой…
Интересный факт: неделя европейского кино заканчивалась этим фильмом и представлял его (извиняюсь за тавтологию) представитель итальянского посольства в Казахстане. Я сидел в маленьком кинозале на 50 мест, + приставных стульев человек на 20. Люди пришли очень разного возраста, сидели и слушали запыхавшегося итальянца и предвкушали начало показа.
О фильме: великолепная история любви, великолепная пара Софи и Марчелло, режиссерская работа на 5+, я смотрел фильм с открытым ртом от начала до конца, получил массу ярких впечатлений… по пути в гостиницу, сполна окунувшись в Италию и Россию послевоенного времени, вспоминал моменты фильма. Впечатлили моменты на пляже, в деревне, в ссср, а именно хорошая операторская работа.
Так же отмечу юмор того времени, были удивительно тонкие моменты…
Фильм запомнился, оставив след в душе, это главное…
Советую… Это «хорошее» кино!

10 из 10

Награды:

Оскар, 1971 год
Номинации (1):
Лучший оригинальный саундтрек (Генри Манчини)
Приз Давид ди Донателло лучшей актрисе (1970,Софи Лорен)

MediaInfo:

Общее
Уникальный идентификатор : 219408806623681438094848079711112054603 (0xA510995CE7E99B9ABADDD502BF84C74B)
Полное имя : D:\Downloads\Подсолнухи.mkv
Формат : Matroska
Версия формата : Version 2
Размер файла : 1,94 Гбайт
Продолжительность : 1 ч. 47 м.
Общий поток : 2592 Кбит/сек
Дата кодирования : UTC 2013-02-13 12:12:39
Программа кодирования : mkvmerge v5.7.0 ('The Whirlwind') built on Jul 29 2012 15:12:35
Библиотека кодирования : libebml v1.2.3 + libmatroska v1.3.0
Видео
Идентификатор : 1
Формат : AVC
Формат/Информация : Advanced Video Codec
Профиль формата : [url=mailto:[email protected]][email protected][/url]
Параметр CABAC формата : Да
Параметр ReFrames формата : 5 кадров
Режим смешивания : Header stripping
Идентификатор кодека : V_MPEG4/ISO/AVC
Продолжительность : 1 ч. 47 м.
Битрейт : 2399 Кбит/сек
Ширина : 704 пикселя
Высота : 384 пикселя
Соотношение сторон : 1,85:1
Режим частоты кадров : Постоянный
Частота кадров : 23,976 кадра/сек
Цветовое пространство : YUV
Субдискретизация насыщенности : 4:2:0
Битовая глубина : 8 бит
Тип развёртки : Прогрессивная
Бит/(Пиксели*Кадры) : 0.370
Размер потока : 1,76 Гбайт (91%)
Заголовок : I girasoli
Библиотека кодирования : x264 core 129 r2245 bc13772
Настройки программы : cabac=1 / ref=5 / deblock=1:0:0 / analyse=0x3:0x113 / me=umh / subme=8 / psy=1 / psy_rd=1.00:0.00 / mixed_ref=1 / me_range=16 / chroma_me=1 / trellis=1 / 8x8dct=1 / cqm=0 / deadzone=21,11 / fast_pskip=1 / chroma_qp_offset=-2 / threads=3 / lookahead_threads=1 / sliced_threads=0 / nr=0 / decimate=1 / interlaced=0 / bluray_compat=0 / constrained_intra=0 / bframes=3 / b_pyramid=2 / b_adapt=2 / b_bias=0 / direct=3 / weightb=1 / open_gop=0 / weightp=2 / keyint=240 / keyint_min=23 / scenecut=40 / intra_refresh=0 / rc_lookahead=50 / rc=2pass / mbtree=1 / bitrate=2399 / ratetol=1.0 / qcomp=0.60 / qpmin=10 / qpmax=51 / qpstep=4 / cplxblur=20.0 / qblur=0.5 / ip_ratio=1.40 / aq=1:1.00
Язык : Italian
Default : Да
Forced : Нет
Аудио
Идентификатор : 2
Формат : AC-3
Формат/Информация : Audio Coding 3
Расширение режима : CM (complete main)
Параметр Endianness формата : Big
Режим смешивания : Header stripping
Идентификатор кодека : A_AC3
Продолжительность : 1 ч. 47 м.
Вид битрейта : Постоянный
Битрейт : 192 Кбит/сек
Каналы : 2 канала
Расположение каналов : Front: L R
Частота : 48,0 КГц
Битовая глубина : 16 бит
Метод сжатия : С потерями
Размер потока : 147 Мбайт (7%)
Заголовок : Многоголосый закадровый от Film Prestige
Язык : Russian
Default : Да
Forced : Нет
Скриншоты:                    Время раздачи: с 12:00 до 24:00 по Москве (выходные круглосуточно), до 10 скачавших
Вне форума [Профиль] [ЛС]
Показать сообщения:    
Ответить на тему

Текущее время: Сегодня 22:19

Часовой пояс: GMT + 3



Вы не можете начинать темы
Вы не можете отвечать на сообщения
Вы не можете редактировать свои сообщения
Вы не можете удалять свои сообщения
Вы не можете голосовать в опросах
Вы не можете прикреплять файлы к сообщениям
Вы не можете скачивать файлы