Сегодня идет свободное скачивание без начисления Download

Братья Блюз / The Blues Brothers (1980) BDRip [H.264]

Ответить на тему
 
Автор
Сообщение

UndegraundMen ®

Стаж: 3 года 9 месяцев

Сообщений: 28329

Торрент-статистика

Пост 17-Фев-2013 22:36

[Цитировать]

-Братья Блюз / The Blues Brothers (1980) BDRip [H.264]- Страна: США
Русское название: Братья Блюз
Оригинальное название: The Blues Brothers ( Extended Cut)
Год выпуска: 1980
Жанр: Мюзикл, Боевик, Комедия
Описание фильма:
Братья-музыканты Джейк и Элвуд Блюзы узнают, что их родная церковь будет снесена, если за нее вовремя не внесут плату в 5 тысяч долларов. На поиск денег у братьев не много времени, и они решают дать концерт.
Однако Джейк только что вышел из тюрьмы, а у Элвуда свои неприятности с законом, и добраться до них мечтают все кому не лень: полиция, бандиты, неонацисты. Прежде чем спасти церковь, братья Блюз устроят настоящий беспредел на улицах Чикаго...
Режиссер: Джон Лэндис / John Landis
Актеры: Джон Белуши, Дэн Эйкройд, Джеймс Браун, Кэб Кэллоуэй, Джон Кэнди, Рэй Чарльз, Арета Франклин, Стив Кроппер, Дональд Данн, Мёрфи Данн, Уилли Холл, Том Мэлоун, Лу Марини
Продолжительность: 02:27:46
Перевод: Многоголосый закадровый, Одноголосный закадровый

Качество: BDRip by vladimiryakushin
Формат: MKV
Видео: x264, 1152x624 (16:9), 23,976 fps, 4449 Kbps
Аудио 1: AC3, 6ch, 48kHz, CBR, 384 Kbps, Русский, Многоголосый закадровый
Аудио 2: AC3, 6ch, 48kHz, CBR, 448 Kbps, Русский, Одноголосный закадровый (Михалев Алексей со вставками Визгунова)
Аудио 3: AC3, 6ch, 48kHz, CBR, 448 Kbps, Original, English
Субтитры: Русские (2 вида), Английские
Навигация по главам: да (главы поименованы)
Сэмпл: Ссылка

Mediainfo

General
Complete name : Братья Блюз. The Blues Brothers. 1980. (мюзикл, боевик, комедия). BDRip-AVC. [Ext. Cut]. [tRuAVC].mkv
Format : Matroska
Format version : Version 2
File size : 5.92 GiB
Duration : 2h 27mn
Overall bit rate : 5 731 Kbps
Movie name : The Blues Brothers (1980) BDRip AVC.AC3 tRuAVC
Encoded by : [tRuAVC]vladimiryakushin
Encoded date : UTC 2011-08-14 18:22:02
Writing application : mkvmerge v3.4.0 ('Rapunzel') built on May 15 2010 09:38:20
Writing library : libebml v0.8.0 + libmatroska v0.9.0
Cover : Cover Picture
TITLE : The Blues Brothers (1980)
DATE_RELEASED : 13th August 2011
COMMENT : BDRip (The Blues Brothers 1980 1080p Blu-ray AVC DTS 5.1)
Video
ID : 1
Format : AVC
Format/Info : Advanced Video Codec
Format profile : [url=mailto:[email protected]][email protected][/url]
Format settings, CABAC : Yes
Format settings, ReFrames : 9 frames
Codec ID : V_MPEG4/ISO/AVC
Duration : 2h 27mn
Bit rate : 4 450 Kbps
Width : 1 152 pixels
Height : 624 pixels
Display aspect ratio : 1.85:1
Frame rate mode : Constant
Frame rate : 23.976 fps
Color space : YUV
Chroma subsampling : 4:2:0
Bit depth : 8 bits
Scan type : Progressive
Bits/(Pixel*Frame) : 0.258
Stream size : 4.48 GiB (76%)
Title : x264.AVC-1152x624
Writing library : x264 core 116 r2044 392e762
Encoding settings : cabac=1 / ref=9 / deblock=1:-2:-2 / analyse=0x3:0x113 / me=umh / subme=10 / psy=1 / psy_rd=0.85:0.20 / mixed_ref=1 / me_range=32 / chroma_me=1 / trellis=2 / 8x8dct=1 / cqm=0 / deadzone=21,11 / fast_pskip=0 / chroma_qp_offset=-3 / threads=4 / sliced_threads=0 / nr=0 / decimate=1 / interlaced=0 / bluray_compat=0 / constrained_intra=0 / bframes=11 / b_pyramid=2 / b_adapt=2 / b_bias=0 / direct=3 / weightb=1 / open_gop=0 / weightp=2 / keyint=250 / keyint_min=23 / scenecut=45 / intra_refresh=0 / rc_lookahead=80 / rc=2pass / mbtree=1 / bitrate=4450 / ratetol=1.0 / qcomp=0.75 / qpmin=0 / qpmax=69 / qpstep=4 / cplxblur=20.0 / qblur=0.5 / vbv_maxrate=50000 / vbv_bufsize=62000 / nal_hrd=none / ip_ratio=1.40 / aq=2:0.85 / zones=205250,212592,q=35
Language : English
Default : No
Forced : No
Transfer characteristics : BT.709
Matrix coefficients : BT.709
Audio #1
ID : 2
Format : AC-3
Format/Info : Audio Coding 3
Mode extension : CM (complete main)
Format settings, Endianness : Big
Codec ID : A_AC3
Duration : 2h 27mn
Bit rate mode : Constant
Bit rate : 384 Kbps
Channel(s) : 6 channels
Channel positions : Front: L C R, Side: L R, LFE
Sampling rate : 48.0 KHz
Bit depth : 16 bits
Compression mode : Lossy
Stream size : 406 MiB (7%)
Title : Russian - MVO
Language : Russian
Default : Yes
Forced : No
Audio #2
ID : 3
Format : AC-3
Format/Info : Audio Coding 3
Mode extension : CM (complete main)
Format settings, Endianness : Big
Codec ID : A_AC3
Duration : 2h 27mn
Bit rate mode : Constant
Bit rate : 448 Kbps
Channel(s) : 6 channels
Channel positions : Front: L C R, Side: L R, LFE
Sampling rate : 48.0 KHz
Bit depth : 16 bits
Compression mode : Lossy
Stream size : 474 MiB (8%)
Title : Russian - AVO [A.Mihalev]
Language : Russian
Default : No
Forced : No
Audio #3
ID : 4
Format : AC-3
Format/Info : Audio Coding 3
Mode extension : CM (complete main)
Format settings, Endianness : Big
Codec ID : A_AC3
Duration : 2h 27mn
Bit rate mode : Constant
Bit rate : 448 Kbps
Channel(s) : 6 channels
Channel positions : Front: L C R, Side: L R, LFE
Sampling rate : 48.0 KHz
Bit depth : 16 bits
Compression mode : Lossy
Stream size : 474 MiB (8%)
Title : English
Language : English
Default : No
Forced : No
Text #1
ID : 5
Format : UTF-8
Codec ID : S_TEXT/UTF8
Codec ID/Info : UTF-8 Plain Text
Title : Russian - v.1
Language : Russian
Default : No
Forced : No
Text #2
ID : 6
Format : UTF-8
Codec ID : S_TEXT/UTF8
Codec ID/Info : UTF-8 Plain Text
Title : Russian - v.2 [K.Kuznecov]
Language : Russian
Default : No
Forced : No
Text #3
ID : 7
Format : UTF-8
Codec ID : S_TEXT/UTF8
Codec ID/Info : UTF-8 Plain Text
Title : English
Language : English
Default : No
Forced : No
Menu
00:00:00.000 : en:Time Served (Main Titles)
00:10:13.070 : en:Tax Assessment
00:16:47.548 : en:Seeing The Light
00:23:59.771 : en:On a Mission from God
00:32:05.214 : en:Home Sweet Home
00:39:25.029 : en:Reassembling the Band
00:49:15.118 : en:Fine Dining
00:54:46.408 : en:Crashing the Party
01:00:09.981 : en:You Better Think!
01:07:12.820 : en:Twist & Shake
01:15:32.861 : en:Bob's Country Bunker
01:24:11.880 : en:Good Ole Boys
01:30:29.257 : en:Booking a Gig
01:41:04.308 : en:The Palace Hotel Show
01:55:13.990 : en:Waiting in Celibacy
02:03:12.259 : en:Maintain Pursuit
02:11:46.106 : en:Paying the Taxes
02:18:53.283 : en:Jailhouse Rock (End Titles)
Скриншоты:
       
       
Время раздачи: С 10:00 до 17:00 (мск)
Вне форума [Профиль] [ЛС]
Показать сообщения:    
Ответить на тему

Текущее время: Сегодня 09:44

Часовой пояс: GMT + 3



Вы не можете начинать темы
Вы не можете отвечать на сообщения
Вы не можете редактировать свои сообщения
Вы не можете удалять свои сообщения
Вы не можете голосовать в опросах
Вы не можете прикреплять файлы к сообщениям
Вы не можете скачивать файлы