Сегодня идет свободное скачивание без начисления Download

Приключения раввина Якова / Les Aventures de Rabbi Jacob (1973) HDRip

Ответить на тему
 
Автор
Сообщение

UndegraundMen ®

Стаж: 3 года 9 месяцев

Сообщений: 28329

Торрент-статистика

Пост 19-Фев-2013 15:52

[Цитировать]

-Приключения раввина Якова / Les Aventures de Rabbi Jacob (1973) HDRip
«THE WILD... THE HILARIOUS... THE SCREWBALL... THE RIOTOUS»
- Русское название: Приключения раввина Якова
Оригинальное название: Les Aventures de Rabbi Jacob
Год выпуска: 1973
Производство: Франция, Италия, Horse Film, Les Films Pomereu
Жанр: Комедия, приключения
Перевод: Дублированный, двухголосый закадровый, многоголосый закадровый
Субтитры: Отсутствуют
Режиссер: Жерар Ури
Сценарий: Роберто Де Леонардис, Жерар Ури, Даниель Томпсон
Актеры: Луи де Фюнес, Клод Жиро, Сьюзи Делер, Марсель Далио, Ренцо Монтаньяни, Джанет Брандт, Андре Фалькон, Ксавье Желен, Анри Гибе, Попек, Миу-Миу, Дениз Прованс, Жак Франсуа, Клод Пьеплю
Описание фильма:
Герой Луи де Фюнеса — типичный француз. У него стабильный доход и масса милых сердцу предрассудков. Один из них — четкое деление мира на«своих и чужих», «французов» и «всех прочих» — просто не дает Виктору покоя. Впрочем, это мало беспокоит героя — забияку и ортодокса — пока дорога нечаянного приключения не оборачивается для него опасным путешествием в «большой мир». А там — козни арабских террористов причудливо переплетаются с запутанной историей раввина Якова в Париж, а фабрика жевательной резинки становится полигоном для нешуточных баталий...- -Продолжительность: 01:35:22
Качество видео: HDRip
Видеокодек: XviD
Битрейт видео: 1788 Кбит/сек
Размер кадра: 720x432
Аудио 1: Русский, AC3, 2 ch, 192 Кбит/сек [DUB, СССР, к/ст им. Довженко]
Аудио 2: Русский, AC3, 2 ch, 384 Кбит/сек [DVO, Фильм-экспорт]
Аудио 3: Русский, AC3, 2 ch, 384 Кбит/сек [MVO, ОРТ]
Аудио 4: Русский, AC3, 2 ch, 384 Кбит/сек [MVO, с DVD-издания]

MediaInfo

Код:
Общее
Полное имя                               : E:\Раздачи\Видео\Приключения раввина Якова (1973) HDRip.avi
Формат                                   : AVI
Формат/Информация                        : Audio Video Interleave
Профиль формата                          : OpenDML
Размер файла                             : 2,11 Гбайт
Продолжительность                        : 1 ч. 35 м.
Общий поток                              : 3162 Кбит/сек
Программа кодирования                    : VirtualDubMod 1.5.10.2 (build 2540/release)
Библиотека кодирования                   : VirtualDubMod build 2540/release
Видео
Идентификатор                            : 0
Формат                                   : MPEG-4 Visual
Профиль формата                          : Advanced [email protected]
Параметр BVOP формата                    : 2
Параметр QPel формата                    : Нет
Параметр GMC формата                     : Без точки перехода
Параметр матрицы формата                 : Default (MPEG)
Режим смешивания                         : Сжатый битовый поток
Идентификатор кодека                     : XVID
Идентификатор кодека/Подсказка           : XviD
Продолжительность                        : 1 ч. 35 м.
Битрейт                                  : 1788 Кбит/сек
Ширина                                   : 720 пикселей
Высота                                   : 432 пикселя
Соотношение сторон                       : 1,667
Частота кадров                           : 23,976 кадра/сек
Цветовое пространство                    : YUV
Субдискретизация насыщенности            : 4:2:0
Битовая глубина                          : 8 бит
Тип развёртки                            : Прогрессивная
Метод сжатия                             : С потерями
Бит/(Пиксели*Кадры)                      : 0.240
Размер потока                            : 1,19 Гбайт (57%)
Библиотека кодирования                   : XviD 1.2.1 (UTC 2008-12-04)
Аудио #1
Идентификатор                            : 1
Формат                                   : AC-3
Формат/Информация                        : Audio Coding 3
Расширение режима                        : CM (complete main)
Параметр Endianness формата              : Big
Идентификатор кодека                     : 2000
Продолжительность                        : 1 ч. 35 м.
Вид битрейта                             : Постоянный
Битрейт                                  : 192 Кбит/сек
Каналы                                   : 2 канала
Расположение каналов                     : Front: L R
Частота                                  : 48,0 КГц
Битовая глубина                          : 16 бит
Метод сжатия                             : С потерями
Размер потока                            : 131 Мбайт (6%)
Выравнивание                             : Разделение по промежуткам
Продолжительность промежутка             : 42  мс. (1,00 видеокадр)
Время предзагрузки промежутка            : 500  мс.
Аудио #2
Идентификатор                            : 2
Формат                                   : AC-3
Формат/Информация                        : Audio Coding 3
Расширение режима                        : CM (complete main)
Параметр Endianness формата              : Big
Идентификатор кодека                     : 2000
Продолжительность                        : 1 ч. 35 м.
Вид битрейта                             : Постоянный
Битрейт                                  : 384 Кбит/сек
Каналы                                   : 2 канала
Расположение каналов                     : Front: L R
Частота                                  : 48,0 КГц
Битовая глубина                          : 16 бит
Метод сжатия                             : С потерями
Задержка видео                           : 1 с. 500 мс.
Размер потока                            : 262 Мбайт (12%)
Выравнивание                             : Разделение по промежуткам
Продолжительность промежутка             : 42  мс. (1,00 видеокадр)
Время предзагрузки промежутка            : 500  мс.
Аудио #3
Идентификатор                            : 3
Формат                                   : AC-3
Формат/Информация                        : Audio Coding 3
Расширение режима                        : CM (complete main)
Параметр Endianness формата              : Big
Идентификатор кодека                     : 2000
Продолжительность                        : 1 ч. 35 м.
Вид битрейта                             : Постоянный
Битрейт                                  : 384 Кбит/сек
Каналы                                   : 2 канала
Расположение каналов                     : Front: L R
Частота                                  : 48,0 КГц
Битовая глубина                          : 16 бит
Метод сжатия                             : С потерями
Задержка видео                           : 1 с. 500 мс.
Размер потока                            : 262 Мбайт (12%)
Выравнивание                             : Разделение по промежуткам
Продолжительность промежутка             : 42  мс. (1,00 видеокадр)
Время предзагрузки промежутка            : 500  мс.
Аудио #4
Идентификатор                            : 4
Формат                                   : AC-3
Формат/Информация                        : Audio Coding 3
Расширение режима                        : CM (complete main)
Параметр Endianness формата              : Big
Идентификатор кодека                     : 2000
Продолжительность                        : 1 ч. 35 м.
Вид битрейта                             : Постоянный
Битрейт                                  : 384 Кбит/сек
Каналы                                   : 6 каналов
Расположение каналов                     : Front: L C R, Side: L R, LFE
Частота                                  : 48,0 КГц
Битовая глубина                          : 16 бит
Метод сжатия                             : С потерями
Задержка видео                           : 1 с. 500 мс.
Размер потока                            : 262 Мбайт (12%)
Выравнивание                             : Разделение по промежуткам
Продолжительность промежутка             : 42  мс. (1,00 видеокадр)
Время предзагрузки промежутка            : 500  мс.
Скриншоты:
         
         -Время раздачи: 9.00 - 23.00 (по мере возможности...)
Вне форума [Профиль] [ЛС]

Козенак

Стаж: 3 года 9 месяцев

Сообщений: 13

Торрент-статистика

Пост 19-Фев-2013 18:03 (спустя 2 часа 11 минут)

[Цитировать]

Прикольно
Вне форума [Профиль] [ЛС]
Похожие темы
Форум Тема Автор Торрент Отв. Посл. сообщение
./templates/default/images/folder_dl.gif Подшивки журналов и газет Подборка журналов | Приключения, тайны, чудеса [2005...2012] [PDF, DjVu] sashau
1 | 0

0 | 1934

5

2013-01-10 15:20
sashau Последнее
./templates/default/images/folder_dl.gif T Иностранные мультфильмы Гаргульи: Герои проснулись / Gargoyles: The Movie - The Heroes Awaken (Казуо Терада / Kazuo Terada, Сабуро Хашимото / Saburo Hashimoto, Такамитсу Кавамура / Takamitsu Kawamura) [1994, Фантастика, фэнтези, приключения, VHSRip] AVO (Иванов) Omen
0 | 1

0 | 600

0

2013-08-07 09:01
Omen Последнее
./templates/default/images/folder_dl.gif Разножанровые коллекции книг и библиотеки Книжная серия | Мир приключений [39 книг] (1986-1993) [FB2, DJVU] UndegraundMen
1 | 0

0 | 1018

25

2013-10-27 18:01
UndegraundMen Последнее
./templates/default/images/folder_dl.gif Фильмы 2001-2010 Орудия смерти: Город костей / The Mortal Instruments: City of Bones (Харольд Цварт) (Боевик, Детектив, Приключения 2013) HDRip Omen
1 | 0

0 | 887

32

2013-11-19 14:19
Omen Последнее
./templates/default/images/folder_dl.gif Подшивки журналов и газет Подшивка журналов | Чудеса и приключения [1992 ... 2014] [DJVU; PDF; CHM]. Обновлено 25.05.2014 Omen
1 | 0

0 | 1076

7

2014-05-26 09:08
Omen Последнее
./templates/default/images/folder_dl.gif Иностранные мультфильмы ВАЛЛ·И / WALL·E (Эндрю Стэнтон / Andrew Stanton) [2008 г., США, мультфильм, фантастика, мелодрама, приключения, семейный, BDRip 1080p] Dub + MVO + AVO (Сербин) + Ukr + Original Eng + Sub (Rus, Ukr, Eng) [Локализованный видеоряд] Omen
2 | 0

0 | 456

6

2014-09-04 20:39
Omen Последнее
./templates/default/images/folder_dl.gif Подшивки журналов и газет Подборка газет | Приключения, тайны, чудеса (2001-2014) [PDF, DJVU] Omen
1 | 0

0 | 813

6

2014-11-16 23:11
Omen Последнее
./templates/default/images/folder_dl.gif Фильмы 2011-2016 Исход: Цари и боги / Exodus: Gods and Kings (Ридли Скотт) [2014 г., боевик, драма, приключения, WEBDL 720p LQ] DUB |iTunes Theseus
1 | 0

0 | 673

61

2015-03-04 02:19
Theseus Последнее
./templates/default/images/folder_dl.gif Фильмы 2011-2016 Однажды (Ренат Давлетьяров) [2015 г., комедия, приключения, WEB-DLRip] (iTunes) Clavik
1 | 0

1 | 1054

70

2016-01-02 08:24
Dracula Последнее
./templates/default/images/folder_dl.gif Фильмы 2011-2016 Безумный Макс: Дорога ярости / Mad Max: Fury Road (Джордж Миллер) [2015 г., фантастика, боевик, триллер, приключения, WEBDL 1080p LQ] AVO Theseus
1 | 0

0 | 1140

79

2015-06-24 16:16
Theseus Последнее
Показать сообщения:    
Ответить на тему

Текущее время: Сегодня 17:31

Часовой пояс: GMT + 3



Вы не можете начинать темы
Вы не можете отвечать на сообщения
Вы не можете редактировать свои сообщения
Вы не можете удалять свои сообщения
Вы не можете голосовать в опросах
Вы не можете прикреплять файлы к сообщениям
Вы не можете скачивать файлы