Сегодня идет свободное скачивание без начисления Download

Мелодия из подвала / Melodie en Sous-Sol (1963) DVDRip

Ответить на тему
 
Автор
Сообщение

UndegraundMen ®

Стаж: 3 года 9 месяцев

Сообщений: 28329

Торрент-статистика

Пост 19-Фев-2013 22:52

[Цитировать]

-Мелодия из подвала / Melodie en Sous-Sol (1963) DVDRip- Русское название: Мелодия из подвала
Оригинальное название: Melodie en Sous-Sol
Год выпуска: 1963
Жанр: Криминал, Комедия
Описание фильма:
Шарль, старый гангстер с богатым послужным списком (Габен), планирует последнее в своей жизни ограбление, после которого собирается уйти на покой. В подельники он приглашает нескольких начинающих бандитов, в том числе и Франсиса (Делон). Им кажется, что план очистки сейфа казино на французской Ривьере безупречен, и уже можно думать о светлом будущем...
Режиссер: Henri Verneuil
Актеры: Жан Габен, Ален Делон, Клод Серваль, Вивиан Романс, Анри Вирложе, Жан Карме, Хосе Луис де Вильялонга, Рита Кадиллак, Джимми Дэвис, Доминик Даврэ, Дора Долл, Жермен Монтеро, Морис Биро, Карла Марлье, Марк Ариан, Анри Атталь, Жак Бертранд, Жорж Билли, Шарль Буйо, Адриен Кайла-Легран, Анн-Мари Коффине, Пьер Колле, Эдуар Франкомм, Жан Гольд, Ален Жане, Руди Ленуар, Сильвен Левиньяк, Мишель Мань, Антуан Марен, Оливье Мато, Бернар Мюссон, Лор Пайетт
Продолжительность: 01:56:09
Перевод: Многоголосый закадровый

Видеокодек: Xvid
Битрейт видео: ~1495 kb/s
Размер кадра: 720 х 320
Качество видео: DVDRip
Аудиокодек: MP3
Битрейт аудио: 192 kb/s VBR

MediaInfo:

Video #0
ID : 0
Format : MPEG-4 Visual
Format profile : Advanced [email protected]
Format settings, BVOP : 2
Format settings, QPel : No
Format settings, GMC : No warppoints
Format settings, Matrix : Default (H.263)
Muxing mode : Packed bitstream
Codec ID : XVID
Codec ID/Hint : XviD
Duration : 1h 56mn
Bit rate : 1 495 Kbps
Width : 720 pixels
Height : 320 pixels
Display aspect ratio : 2.25:1
Frame rate : 25.000 fps
Color space : YUV
Chroma subsampling : 4:2:0
Bit depth : 8 bits
Scan type : Progressive
Compression mode : Lossy
Bits/(Pixel*Frame) : 0.260
Stream size : 1.21 GiB (88%)
Writing library : XviD 73
Audio #1
ID : 1
Format : MPEG Audio
Format version : Version 1
Format profile : Layer 3
Mode : Joint stereo
Mode extension : MS Stereo
Codec ID : 55
Codec ID/Hint : MP3
Duration : 1h 56mn
Bit rate mode : Constant
Bit rate : 192 Kbps
Channel(s) : 2 channels
Sampling rate : 48.0 KHz
Compression mode : Lossy
Stream size : 160 MiB (11%)
Alignment : Split accross interleaves
Interleave, duration : 40 ms (1.00 video frame)
Interleave, preload duration : 500 ms
Writing library : LAME3.99.5
Скриншоты:
       
       
Время раздачи: С 18:00 до 00:00
Вне форума [Профиль] [ЛС]
Похожие темы
Форум Тема Автор Торрент Отв. Посл. сообщение
./templates/default/images/folder_dl.gif Фильмы 2001-2010 Джек отправляется в плаванье / Jack Goes Boating (Филип Сеймур Хоффман) [2010 г., мелодрама, комедия, HDRip] Varius
1 | 0

1 | 901

7

2011-01-20 12:40
Vildanoff Последнее
./templates/default/images/folder_dl.gif Зарубежное кино Когда Гарри встретил Салли / When Harry Met Sally... (Роб Райнер / Rob Reiner) [1989, драма, мелодрама, комедия, BDRip 1080p] 2 x MVO (20 th Century Fox, Фортуна фильм) + AVO (Михалев) + Original + Subs (3 x Rus, Eng) Delia
1 | 0

0 | 537

6

2012-08-04 12:30
Delia Последнее
./templates/default/images/folder_dl.gif Фильмы 2011-2016 Джунгли (Александр Войтинский) [2012 г., мелодрама, комедия, приключения, DVDRip] sassad
1 | 0

1 | 1430

242

2012-12-10 16:51
dima2012 Последнее
./templates/default/images/folder_dl.gif Фильмы 2011-2016 Жизнь после жизни (Александр Будённый) (Мелодрама, Криминал, 2013) HDTVRip Omen
1 | 0

0 | 682

12

2013-06-05 11:42
Omen Последнее
./templates/default/images/folder_dl.gif Иностранные мультфильмы ВАЛЛ·И / WALL·E (Эндрю Стэнтон / Andrew Stanton) [2008 г., США, мультфильм, фантастика, мелодрама, приключения, семейный, BDRip 1080p] Dub + MVO + AVO (Сербин) + Ukr + Original Eng + Sub (Rus, Ukr, Eng) [Локализованный видеоряд] Omen
2 | 0

0 | 454

6

2014-09-04 20:39
Omen Последнее
./templates/default/images/folder_dl.gif Музыка других жанров Сборник - Волшебные Инструментальные Мелодии (2015) [320Kbps] (MP3) yurban50
1 | 0

0 | 719

19

2015-02-24 14:03
yurban50 Последнее
./templates/default/images/folder_dl.gif Фильмы до 2000 года Шоу-бой (Виктор Волков) [1991 г., драма, мелодрама, DVDRip] volk67
1 | 0

3 | 1012

1

2015-09-01 15:58
volk67 Последнее
./templates/default/images/folder_dl.gif Фильмы 2011-2016 Без границ (Карен Оганесян, Резо Гигинеишвили, Роман Прыгунов) [2015 г., комедия, мелодрама, WEBDL 720p] Theseus
1 | 0

1 | 376

12

2016-01-02 08:16
Dracula Последнее
./templates/default/images/folder_dl.gif Отечественные cериалы Восьмидесятые / Cезон 1-6, cерии 1-105 из 105 (Фёдор Стуков, Юлия Левкина) [2011-2016, комедия, мелодрама, SATRip] Theseus
1 | 0

0 | 290

4

2016-06-17 00:38
Theseus Последнее
Показать сообщения:    
Ответить на тему

Текущее время: Сегодня 09:43

Часовой пояс: GMT + 3



Вы не можете начинать темы
Вы не можете отвечать на сообщения
Вы не можете редактировать свои сообщения
Вы не можете удалять свои сообщения
Вы не можете голосовать в опросах
Вы не можете прикреплять файлы к сообщениям
Вы не можете скачивать файлы