Сегодня идет свободное скачивание без начисления Download

Мелодия из подвала / Melodie en Sous-Sol (1963) DVDRip

Ответить на тему
 
Автор
Сообщение

UndegraundMen ®

Стаж: 4 года 6 месяцев

Сообщений: 26499

Торрент-статистика

Пост 19-Фев-2013 22:52

[Цитировать]

-Мелодия из подвала / Melodie en Sous-Sol (1963) DVDRip- Русское название: Мелодия из подвала
Оригинальное название: Melodie en Sous-Sol
Год выпуска: 1963
Жанр: Криминал, Комедия
Описание фильма:
Шарль, старый гангстер с богатым послужным списком (Габен), планирует последнее в своей жизни ограбление, после которого собирается уйти на покой. В подельники он приглашает нескольких начинающих бандитов, в том числе и Франсиса (Делон). Им кажется, что план очистки сейфа казино на французской Ривьере безупречен, и уже можно думать о светлом будущем...
Режиссер: Henri Verneuil
Актеры: Жан Габен, Ален Делон, Клод Серваль, Вивиан Романс, Анри Вирложе, Жан Карме, Хосе Луис де Вильялонга, Рита Кадиллак, Джимми Дэвис, Доминик Даврэ, Дора Долл, Жермен Монтеро, Морис Биро, Карла Марлье, Марк Ариан, Анри Атталь, Жак Бертранд, Жорж Билли, Шарль Буйо, Адриен Кайла-Легран, Анн-Мари Коффине, Пьер Колле, Эдуар Франкомм, Жан Гольд, Ален Жане, Руди Ленуар, Сильвен Левиньяк, Мишель Мань, Антуан Марен, Оливье Мато, Бернар Мюссон, Лор Пайетт
Продолжительность: 01:56:09
Перевод: Многоголосый закадровый

Видеокодек: Xvid
Битрейт видео: ~1495 kb/s
Размер кадра: 720 х 320
Качество видео: DVDRip
Аудиокодек: MP3
Битрейт аудио: 192 kb/s VBR

MediaInfo:

Video #0
ID : 0
Format : MPEG-4 Visual
Format profile : Advanced [email protected]
Format settings, BVOP : 2
Format settings, QPel : No
Format settings, GMC : No warppoints
Format settings, Matrix : Default (H.263)
Muxing mode : Packed bitstream
Codec ID : XVID
Codec ID/Hint : XviD
Duration : 1h 56mn
Bit rate : 1 495 Kbps
Width : 720 pixels
Height : 320 pixels
Display aspect ratio : 2.25:1
Frame rate : 25.000 fps
Color space : YUV
Chroma subsampling : 4:2:0
Bit depth : 8 bits
Scan type : Progressive
Compression mode : Lossy
Bits/(Pixel*Frame) : 0.260
Stream size : 1.21 GiB (88%)
Writing library : XviD 73
Audio #1
ID : 1
Format : MPEG Audio
Format version : Version 1
Format profile : Layer 3
Mode : Joint stereo
Mode extension : MS Stereo
Codec ID : 55
Codec ID/Hint : MP3
Duration : 1h 56mn
Bit rate mode : Constant
Bit rate : 192 Kbps
Channel(s) : 2 channels
Sampling rate : 48.0 KHz
Compression mode : Lossy
Stream size : 160 MiB (11%)
Alignment : Split accross interleaves
Interleave, duration : 40 ms (1.00 video frame)
Interleave, preload duration : 500 ms
Writing library : LAME3.99.5
Скриншоты:
       
       
Время раздачи: С 18:00 до 00:00
Вне форума [Профиль] [ЛС]
Похожие темы
Форум Тема Автор Торрент Отв. Посл. сообщение
./templates/default/images/folder_dl.gif Отечественные cериалы Высший пилотаж / Сезон: 1 Серии: 1-16 из 16 (Александр Щурихин) [2009, Приключенческая мелодрама, DVDRip] nsa1977
0 | 1

0 | 797

3

2011-07-05 23:43
nsa1977 Последнее
./templates/default/images/folder_dl.gif Зарубежное кино Притворись моей женой / Just Go with It (Дэннис Дуган / Dennis Dugan) [2011, США, мелодрама, комедия, DVD9] R5 DUB [«Columbia/Sony»] Delia
1 | 0

0 | 621

6

2011-09-09 22:57
Delia Последнее
./templates/default/images/folder_dl.gif Зарубежное кино Когда Гарри встретил Салли / When Harry Met Sally... (Роб Райнер / Rob Reiner) [1989, драма, мелодрама, комедия, BDRip 1080p] 2 x MVO (20 th Century Fox, Фортуна фильм) + AVO (Михалев) + Original + Subs (3 x Rus, Eng) Delia
2 | 0

0 | 999

10

2012-08-04 12:30
Delia Последнее
./templates/default/images/folder_dl.gif Фильмы 2001-2010 Создатель Миров / World Builder (Bruce Branit) [2007 г., мелодрама, фантастика, HDRip] Jurchic
0 | 1

2 | 1667

7

2012-09-16 22:09
Jurchic Последнее
./templates/default/images/folder_dl.gif Иностранные мультфильмы ВАЛЛ·И / WALL·E (Эндрю Стэнтон / Andrew Stanton) [2008 г., США, мультфильм, фантастика, мелодрама, приключения, семейный, BDRip 1080p] Dub + MVO + AVO (Сербин) + Ukr + Original Eng + Sub (Rus, Ukr, Eng) [Локализованный видеоряд] Omen
1 | 0

0 | 880

10

2014-09-04 20:39
Omen Последнее
Показать сообщения:    
Ответить на тему

Текущее время: Сегодня 04:37

Часовой пояс: GMT + 3



Вы не можете начинать темы
Вы не можете отвечать на сообщения
Вы не можете редактировать свои сообщения
Вы не можете удалять свои сообщения
Вы не можете голосовать в опросах
Вы не можете прикреплять файлы к сообщениям
Вы не можете скачивать файлы