Сегодня идет свободное скачивание без начисления Download

Мелодия из подвала / Melodie en Sous-Sol (1963) DVDRip

Ответить на тему
 
Автор
Сообщение

UndegraundMen ®

Стаж: 4 года 1 месяц

Сообщений: 26522

Торрент-статистика

Пост 19-Фев-2013 22:52

[Цитировать]

-Мелодия из подвала / Melodie en Sous-Sol (1963) DVDRip- Русское название: Мелодия из подвала
Оригинальное название: Melodie en Sous-Sol
Год выпуска: 1963
Жанр: Криминал, Комедия
Описание фильма:
Шарль, старый гангстер с богатым послужным списком (Габен), планирует последнее в своей жизни ограбление, после которого собирается уйти на покой. В подельники он приглашает нескольких начинающих бандитов, в том числе и Франсиса (Делон). Им кажется, что план очистки сейфа казино на французской Ривьере безупречен, и уже можно думать о светлом будущем...
Режиссер: Henri Verneuil
Актеры: Жан Габен, Ален Делон, Клод Серваль, Вивиан Романс, Анри Вирложе, Жан Карме, Хосе Луис де Вильялонга, Рита Кадиллак, Джимми Дэвис, Доминик Даврэ, Дора Долл, Жермен Монтеро, Морис Биро, Карла Марлье, Марк Ариан, Анри Атталь, Жак Бертранд, Жорж Билли, Шарль Буйо, Адриен Кайла-Легран, Анн-Мари Коффине, Пьер Колле, Эдуар Франкомм, Жан Гольд, Ален Жане, Руди Ленуар, Сильвен Левиньяк, Мишель Мань, Антуан Марен, Оливье Мато, Бернар Мюссон, Лор Пайетт
Продолжительность: 01:56:09
Перевод: Многоголосый закадровый

Видеокодек: Xvid
Битрейт видео: ~1495 kb/s
Размер кадра: 720 х 320
Качество видео: DVDRip
Аудиокодек: MP3
Битрейт аудио: 192 kb/s VBR

MediaInfo:

Video #0
ID : 0
Format : MPEG-4 Visual
Format profile : Advanced [email protected]
Format settings, BVOP : 2
Format settings, QPel : No
Format settings, GMC : No warppoints
Format settings, Matrix : Default (H.263)
Muxing mode : Packed bitstream
Codec ID : XVID
Codec ID/Hint : XviD
Duration : 1h 56mn
Bit rate : 1 495 Kbps
Width : 720 pixels
Height : 320 pixels
Display aspect ratio : 2.25:1
Frame rate : 25.000 fps
Color space : YUV
Chroma subsampling : 4:2:0
Bit depth : 8 bits
Scan type : Progressive
Compression mode : Lossy
Bits/(Pixel*Frame) : 0.260
Stream size : 1.21 GiB (88%)
Writing library : XviD 73
Audio #1
ID : 1
Format : MPEG Audio
Format version : Version 1
Format profile : Layer 3
Mode : Joint stereo
Mode extension : MS Stereo
Codec ID : 55
Codec ID/Hint : MP3
Duration : 1h 56mn
Bit rate mode : Constant
Bit rate : 192 Kbps
Channel(s) : 2 channels
Sampling rate : 48.0 KHz
Compression mode : Lossy
Stream size : 160 MiB (11%)
Alignment : Split accross interleaves
Interleave, duration : 40 ms (1.00 video frame)
Interleave, preload duration : 500 ms
Writing library : LAME3.99.5
Скриншоты:
       
       
Время раздачи: С 18:00 до 00:00
Вне форума [Профиль] [ЛС]
Похожие темы
Форум Тема Автор Торрент Отв. Посл. сообщение
./templates/default/images/folder_dl.gif Зарубежное кино Когда Гарри встретил Салли / When Harry Met Sally... (Роб Райнер / Rob Reiner) [1989, драма, мелодрама, комедия, BDRip 1080p] 2 x MVO (20 th Century Fox, Фортуна фильм) + AVO (Михалев) + Original + Subs (3 x Rus, Eng) Delia
1 | 0

0 | 756

7

2012-08-04 12:30
Delia Последнее
./templates/default/images/folder_dl.gif Зарубежное кино Цвет ночи / Color of Night (Ричард Раш / Richard Rush) [ 1994 , США , триллер, драма, мелодрама , BDRip1080p ] Delia
1 | 0

0 | 460

6

2012-11-26 15:15
Delia Последнее
./templates/default/images/folder_dl.gif Наше кино Весна на Заречной улице (Феликс Миронер и Марлен Хуциев) [1956, CCCP, Мелодрама, HDTV 1080i] [Цветной] Omen
0 | 1

1 | 649

5

2013-06-12 14:05
uschakov.yura Последнее
./templates/default/images/folder_dl.gif Зарубежное кино Таинственный лес / The Village (М. Найт Шьямалан / M. Night Shyamalan) [2004, США, триллер, мелодрама, WEB-DL 720p] Dub + Sub Rus + Original Eng Omen
2 | 0

0 | 188

1

2013-11-26 11:58
Omen Последнее
./templates/default/images/folder_dl.gif Иностранные мультфильмы Холодное сердце / Frozen (Крис Бак / Chris Buck, Дженнифер Ли / Jennifer Lee) [2013, США, мультфильм, мюзикл, фэнтези, комедия, мелодрама, приключения, семейный, BDRip] Dub + Original Eng + Subs Omen
1 | 0

0 | 534

25

2014-04-03 11:09
Omen Последнее
./templates/default/images/folder_dl.gif Зарубежное кино Скорость 2: Контроль над круизом / Speed 2: Cruise Control (Ян де Бонт / Jan de Bont) [1997, США, боевик, триллер, мелодрама, Blu-ray disc] Dub + Sub Eng, Rus + Original Eng Omen
1 | 0

1 | 825

11

2014-05-03 21:49
Dracula Последнее
./templates/default/images/folder_dl.gif Иностранные мультфильмы ВАЛЛ·И / WALL·E (Эндрю Стэнтон / Andrew Stanton) [2008 г., США, мультфильм, фантастика, мелодрама, приключения, семейный, BDRip 1080p] Dub + MVO + AVO (Сербин) + Ukr + Original Eng + Sub (Rus, Ukr, Eng) [Локализованный видеоряд] Omen
1 | 0

0 | 630

8

2014-09-04 20:39
Omen Последнее
./templates/default/images/folder_dl.gif Музыка других жанров Сборник - Волшебные Инструментальные Мелодии (2015) [320Kbps] (MP3) yurban50
1 | 0

0 | 976

21

2015-02-24 14:03
yurban50 Последнее
./templates/default/images/folder_dl.gif Фильмы до 2000 года Шоу-бой (Виктор Волков) [1991 г., драма, мелодрама, DVDRip] volk67
1 | 0

3 | 1338

1

2015-09-01 15:58
volk67 Последнее
./templates/default/images/folder_dl.gif Отечественные cериалы Под знаком Луны / Серии: 1-2 из 2 (Пётр Степин) [2015, Россия, Драма, мелодрама, HDTVRip] Omen
1 | 0

0 | 324

11

2015-11-29 03:03
Omen Последнее
Показать сообщения:    
Ответить на тему

Текущее время: Сегодня 20:36

Часовой пояс: GMT + 3



Вы не можете начинать темы
Вы не можете отвечать на сообщения
Вы не можете редактировать свои сообщения
Вы не можете удалять свои сообщения
Вы не можете голосовать в опросах
Вы не можете прикреплять файлы к сообщениям
Вы не можете скачивать файлы